The Bodyguard (1992) m-1080p Dual Latino-Inglés [Subt. Esp-Ing] (Intriga. Drama. Romance)

Maestro Revolver

Well-known member
Miembro del Staff
Administrador
Registro
9 Ago 2012
Mensajes
3.569
Reacciones
59.341
Puntos
113

Reputation:









TÍTULO ORIGINAL: The Bodyguard
AÑO: 1992
DURACIÓN: 129 min.
PAÍS: USA
DIRECTOR: Mick Jackson
GUIÓN: Lawrence Kasdan
REPARTO: Kevin Costner, Whitney Houston, Gary Kemp, Bill Cobbs, Mike Starr, Richard Schiff, Ralph Waite, Tomas Arana
PRODUCTORA: Warner Bros
GÉNERO: Intriga. Drama. Romance | Asesinos en serie
: http://www.imdb.com/title/tt0103855/






Una cantante famosa (Houston) que recibe constantemente cartas anónimas con amenazas de muerte contrata a un guardaespaldas profesional para que la proteja (Costner). Sin embargo, ella no está de acuerdo con los métodos empleados por su protector.
























La pelicula NO tiene ninguna marca... solo colocamos el nombre de esta web en las capturas






Código:
General
Format                                   : Matroska
Format version                           : Version 2
File size                                : 4.78 GiB
Duration                                 : 2h 9mn
Overall bit rate                         : 5 296 Kbps
Movie name                               : www.club-hd.com
Encoded date                             : UTC 2013-04-10 15:03:16
Writing application                      : mkvmerge v5.7.0 ('The Whirlwind') built on Jul  8 2012 20:08:51
Writing library                          : libebml v1.2.3 + libmatroska v1.3.0

Video
ID                                       : 1
Format                                   : AVC
Format/Info                              : Advanced Video Codec
Format profile                           : Main@L4.0
Format settings, CABAC                   : Yes
Format settings, ReFrames                : 4 frames
Codec ID                                 : V_MPEG4/ISO/AVC
Duration                                 : 2h 9mn
Bit rate                                 : 4 500 Kbps
Width                                    : 1 920 pixels
Height                                   : 1 080 pixels
Display aspect ratio                     : 16:9
Frame rate mode                          : Constant
Frame rate                               : 23.976 fps
Color space                              : YUV
Chroma subsampling                       : 4:2:0
Bit depth                                : 8 bits
Scan type                                : Progressive
Bits/(Pixel*Frame)                       : 0.091
Stream size                              : 3.94 GiB (82%)
Title                                    : www.club-hd.com
Writing library                          : x264 core 112
Language                                 : English
Default                                  : Yes
Forced                                   : No
Color primaries                          : BT.709
Transfer characteristics                 : BT.709
Matrix coefficients                      : BT.709

Audio #1
ID                                       : 2
Format                                   : AC-3
Format/Info                              : Audio Coding 3
Format profile                           : Dolby Digital
Mode extension                           : CM (complete main)
Format settings, Endianness              : Big
Codec ID                                 : A_AC3
Duration                                 : 2h 9mn
Bit rate mode                            : Constant
Bit rate                                 : 192 Kbps
Channel(s)                               : 2 channels
Channel positions                        : Front: L R
Sampling rate                            : 48.0 KHz
Bit depth                                : 16 bits
Compression mode                         : Lossy
Stream size                              : 178 MiB (4%)
Title                                    : www.club-hd.com  >>  Latino
Language                                 : Spanish
Default                                  : Yes
Forced                                   : No

Audio #2
ID                                       : 3
Format                                   : AC-3
Format/Info                              : Audio Coding 3
Mode extension                           : CM (complete main)
Format settings, Endianness              : Big
Codec ID                                 : A_AC3
Duration                                 : 2h 9mn
Bit rate mode                            : Constant
Bit rate                                 : 640 Kbps
Channel(s)                               : 6 channels
Channel positions                        : Front: L C R, Side: L R, LFE
Sampling rate                            : 48.0 KHz
Bit depth                                : 16 bits
Compression mode                         : Lossy
Stream size                              : 592 MiB (12%)
Title                                    : www.club-hd.com  >>  Inglés
Language                                 : English
Default                                  : No
Forced                                   : No

Text #1
ID                                       : 4
Format                                   : UTF-8
Codec ID                                 : S_TEXT/UTF8
Codec ID/Info                            : UTF-8 Plain Text
Language                                 : Spanish
Default                                  : No
Forced                                   : No

Text #2
ID                                       : 5
Format                                   : UTF-8
Codec ID                                 : S_TEXT/UTF8
Codec ID/Info                            : UTF-8 Plain Text
Language                                 : English
Default                                  : No
Forced                                   : No

Menu
00:00:00.000                             : en:Chapter 1
00:03:48.561                             : en:Chapter 2
00:05:22.363                             : en:Chapter 3
00:12:46.390                             : en:Chapter 4
00:17:19.246                             : en:Chapter 5
00:19:35.215                             : en:Chapter 6
00:23:45.424                             : en:Chapter 7
00:26:13.780                             : en:Chapter 8
00:30:11.559                             : en:Chapter 9
00:31:23.506                             : en:Chapter 10
00:35:30.753                             : en:Chapter 11
00:38:39.775                             : en:Chapter 12
00:42:08.150                             : en:Chapter 13
00:44:09.271                             : en:Chapter 14
00:46:35.667                             : en:Chapter 15
00:47:39.147                             : en:Chapter 16
00:51:51.691                             : en:Chapter 17
00:54:09.120                             : en:Chapter 18
01:01:46.160                             : en:Chapter 19
01:04:40.501                             : en:Chapter 20
01:11:02.049                             : en:Chapter 21
01:14:17.911                             : en:Chapter 22
01:17:41.114                             : en:Chapter 23
01:20:55.016                             : en:Chapter 24
01:26:19.757                             : en:Chapter 25
01:30:13.032                             : en:Chapter 26
01:34:01.093                             : en:Chapter 27
01:36:18.981                             : en:Chapter 28
01:37:12.117                             : en:Chapter 29
01:40:27.354                             : en:Chapter 30
01:43:40.547                             : en:Chapter 31
01:47:27.941                             : en:Chapter 32
01:48:43.808                             : en:Chapter 33
01:53:37.435                             : en:Chapter 34
01:56:02.956                             : en:Chapter 35
01:59:26.159                             : en:Chapter 36
02:00:54.580                             : en:Chapter 37
02:03:34.407                             : en:Chapter 38








Enlaces de Mega y Fireload solo disponibles para Miembros VIP

Compra tu Membresía VIP y apoya a Club-HD!

ATENCIÓN! Tenemos TODO el material de Club-HD disponible por Mega y Fireload, enlaces 100% activos y online hasta la fecha

Llévate tus cuentas Mega PRO II gratis con tu membresía VIP!
Todos los posts vivos con links de Mega y Fireload.
Todo el material de Club-HD desbloqueado y sin publicidad.

Click Aquí para más información.



Para ver este contenido oculto, debes dar click en una de las siguientes reacciones : Like Like, Love Love, Haha Haha, Wow Wow, Sad Sad, Angry Angry

 
Última edición por un moderador:

Maestro Revolver

Well-known member
Miembro del Staff
Administrador
Registro
9 Ago 2012
Mensajes
3.569
Reacciones
59.341
Puntos
113

Reputation:

Tb_up3 buy buena pero la espero aber si sale en 720

habitualmente si subo un m-1080p no tengo 720p , asi que esto es lo unico que tengo, y bajarle la calidad a este bdrip a 720p perderia mucha calidad.

PD: ya la calidad que trajo este bluray no es buena, al igual que The Expendables 2 (2012), Black Swan (2010), 28 Days Later... (2002) entre otras...
 

Omar Herrera

Well-known member
Miembro del Staff
Súper Moderador
Registro
27 Ago 2012
Mensajes
1.234
Reacciones
325
Puntos
83
Edad
32
Ubicación
Managua

Reputation:

Perfecto Revolver!! has estado de lo mejor estos dias, subiendo nada mas que buenas cosas amigo... Gracias!! eres el mejor Amigo! :dplgar:
 

Ezze

Well-known member
Miembro del Staff
Súper Moderador
Registro
28 Ago 2012
Mensajes
1.663
Reacciones
1.790
Puntos
113
Ubicación
En la Torre de Observación

Reputation:

Todo un clásico!!! :dplgar: Muchas gracias Revo!!! :aplausos::aplausos::aplausos: Se merece estar en toda colección de películas! :D:D Saludos bye
 

Usuarios Que Están Viendo Este Tema (Total: 1, Miembros: 0, Invitados: 1)

Arriba