• Este aviso va dirigido a todos los nuevos miembros recien llegados a Club-HD. Les recordamos que la direccion URL de este sitio web es , asi que deben acceder únicamente por esta URL. Sean todos bienvenidos al Club!

The Boys S02E04 - Nothing Like It In The World (2020) 1080p AMZN WEB-DL Dual Latino-Inglés [Subt. Esp] (Serie de TV. Acción)

Brady

Moderador
Miembro del Staff
Moderador
Uploader
Registrado
1 Jun 2016
Mensajes
2,636
Puntos de reacción
42,099
Puntos
113
Edad
24




Sinopsis
¡Temporada 2! ¡Nuevo y mejorado! ¡Ahora con un 50% más de decapitaciones explosivas, terroristas, prostitutas S&M, cultos y un nuevo aroma a pino fresco! ¡Pero espera hay mas! ¡2 veces más sangre, tripas y sangre que las otras marcas líderes! ¡Esta oferta exclusiva está disponible solo en Amazon Prime Video! ¡No se demore! ¡Ordenar ahora!


MEDIAINFO
Código:
General
Unique ID                                : 171162029168353323175622540369636723370 (0x80C49B944EB1B12144D165D2C8C58AAA)
Format                                   : Matroska
Format version                           : Version 4
File size                                : 3.91 GiB
Duration                                 : 1 h 8 min
Overall bit rate                         : 8 215 kb/s
Encoded date                             : UTC 2020-09-11 12:58:38
Writing application                      : mkvmerge v49.0.0 ('Sick Of Losing Soulmates') 64-bit
Writing library                          : libebml v1.4.0 + libmatroska v1.6.1
Uploader                                 : Brady
Web                                      : www.club-hd.com

Video
ID                                       : 1
Format                                   : AVC
Format/Info                              : Advanced Video Codec
Format profile                           : High@L4
Format settings                          : CABAC / 4 Ref Frames
Format settings, CABAC                   : Yes
Format settings, Reference frames        : 4 frames
Codec ID                                 : V_MPEG4/ISO/AVC
Duration                                 : 1 h 8 min
Bit rate mode                            : Constant
Bit rate                                 : 6 933 kb/s
Nominal bit rate                         : 10 000 kb/s
Width                                    : 1 920 pixels
Height                                   : 800 pixels
Display aspect ratio                     : 2.40:1
Frame rate mode                          : Constant
Frame rate                               : 23.976 (24000/1001) FPS
Color space                              : YUV
Chroma subsampling                       : 4:2:0
Bit depth                                : 8 bits
Scan type                                : Progressive
Bits/(Pixel*Frame)                       : 0.188
Stream size                              : 3.30 GiB (84%)
Language                                 : English
Default                                  : Yes
Forced                                   : No
Color range                              : Limited
Color primaries                          : BT.709
Transfer characteristics                 : BT.709
Matrix coefficients                      : BT.709

Audio #1
ID                                       : 2
Format                                   : E-AC-3
Format/Info                              : Enhanced AC-3
Commercial name                          : Dolby Digital Plus
Codec ID                                 : A_EAC3
Duration                                 : 1 h 8 min
Bit rate mode                            : Constant
Bit rate                                 : 640 kb/s
Channel(s)                               : 6 channels
Channel layout                           : L R C LFE Ls Rs
Sampling rate                            : 48.0 kHz
Frame rate                               : 31.250 FPS (1536 SPF)
Compression mode                         : Lossy
Stream size                              : 312 MiB (8%)
Title                                    : Latino
Language                                 : Spanish
Service kind                             : Complete Main
Default                                  : Yes
Forced                                   : No

Audio #2
ID                                       : 3
Format                                   : E-AC-3
Format/Info                              : Enhanced AC-3
Commercial name                          : Dolby Digital Plus
Codec ID                                 : A_EAC3
Duration                                 : 1 h 8 min
Bit rate mode                            : Constant
Bit rate                                 : 640 kb/s
Channel(s)                               : 6 channels
Channel layout                           : L R C LFE Ls Rs
Sampling rate                            : 48.0 kHz
Frame rate                               : 31.250 FPS (1536 SPF)
Compression mode                         : Lossy
Stream size                              : 312 MiB (8%)
Title                                    : Ingles
Language                                 : English
Service kind                             : Complete Main
Default                                  : No
Forced                                   : No

Text #1
ID                                       : 4
Format                                   : UTF-8
Codec ID                                 : S_TEXT/UTF8
Codec ID/Info                            : UTF-8 Plain Text
Duration                                 : 1 h 7 min
Bit rate                                 : 59 b/s
Count of elements                        : 953
Stream size                              : 29.2 KiB (0%)
Title                                    : Latino
Language                                 : Spanish
Default                                  : No
Forced                                   : No

Text #2
ID                                       : 5
Format                                   : UTF-8
Codec ID                                 : S_TEXT/UTF8
Codec ID/Info                            : UTF-8 Plain Text
Duration                                 : 52 min 20 s
Bit rate                                 : 2 b/s
Count of elements                        : 28
Stream size                              : 1.10 KiB (0%)
Title                                    : Forzados
Language                                 : Spanish
Default                                  : Yes
Forced                                   : No

Text #3
ID                                       : 6
Format                                   : UTF-8
Codec ID                                 : S_TEXT/UTF8
Codec ID/Info                            : UTF-8 Plain Text
Duration                                 : 1 h 5 min
Bit rate                                 : 67 b/s
Count of elements                        : 1148
Stream size                              : 32.7 KiB (0%)
Title                                    : Ingles
Language                                 : English
Default                                  : No
Forced                                   : No
CAPTURAS







DESCARGA
Todos los links son Intercambiables!



Disponible

👻 ¡VER ONLINE y DESCARGAR 1 LINK!👻


Enlaces de Mega y Google Drive solo disponibles para Miembros VIP

Compra tu Membresía VIP y apoya a Club-HD!

ATENCIÓN! Tenemos TODO el material de Club-HD disponible por Mega y Google Drive, enlaces 100% activos y online hasta la fecha

Llévate tus cuentas Mega PRO II gratis con tu membresía VIP!
Todos los posts vivos con links de Mega y Google Drive.
Todo el material de Club-HD desbloqueado y sin publicidad.

Click Aquí para más información.


Enlaces de Mega y Google Drive solo disponibles para Miembros VIP

Compra tu Membresía VIP y apoya a Club-HD!

ATENCIÓN! Tenemos TODO el material de Club-HD disponible por Mega y Google Drive, enlaces 100% activos y online hasta la fecha

Llévate tus cuentas Mega PRO II gratis con tu membresía VIP!
Todos los posts vivos con links de Mega y Google Drive.
Todo el material de Club-HD desbloqueado y sin publicidad.

Click Aquí para más información.


Para ver este contenido oculto, debes dar click en una de las siguientes reacciones: Like Like, Love Love, Haha Haha, Wow Wow, Sad Sad, Angry Angry


Para ver este contenido oculto, debes dar click en una de las siguientes reacciones: Like Like, Love Love, Haha Haha, Wow Wow, Sad Sad, Angry Angry


Para ver este contenido oculto, debes dar click en una de las siguientes reacciones: Like Like, Love Love, Haha Haha, Wow Wow, Sad Sad, Angry Angry
CONTRASEÑA
Código:
www.club-hd.com
 

jmendoza

Member
Miembro VIP
Registrado
28 Jul 2020
Mensajes
225
Puntos de reacción
6
Puntos
18
Gracias por compartir
agregado a la cola de descargas
saludos desde Perú

Consulta?
porque en tu firma sobre "obtener cuenta nitroflare" me envia a una descarga de un archivo?
quisiera obtener información al respecto

Gracias
 

Greece666

Active member
Registrado
4 Oct 2013
Mensajes
923
Puntos de reacción
121
Puntos
43
Edad
30
Al finnn ! gracias antes que otros
 

galiel38

Active member
Registrado
28 Sep 2012
Mensajes
708
Puntos de reacción
86
Puntos
28
Edad
32
Muchas gracias por subir este capitulo.
 

drago1772

Active member
Registrado
9 Mar 2013
Mensajes
1,014
Puntos de reacción
11
Puntos
38
Edad
47




Sinopsis
¡Temporada 2! ¡Nuevo y mejorado! ¡Ahora con un 50% más de decapitaciones explosivas, terroristas, prostitutas S&M, cultos y un nuevo aroma a pino fresco! ¡Pero espera hay mas! ¡2 veces más sangre, tripas y sangre que las otras marcas líderes! ¡Esta oferta exclusiva está disponible solo en Amazon Prime Video! ¡No se demore! ¡Ordenar ahora!


MEDIAINFO
Código:
General
Unique ID                                : 171162029168353323175622540369636723370 (0x80C49B944EB1B12144D165D2C8C58AAA)
Format                                   : Matroska
Format version                           : Version 4
File size                                : 3.91 GiB
Duration                                 : 1 h 8 min
Overall bit rate                         : 8 215 kb/s
Encoded date                             : UTC 2020-09-11 12:58:38
Writing application                      : mkvmerge v49.0.0 ('Sick Of Losing Soulmates') 64-bit
Writing library                          : libebml v1.4.0 + libmatroska v1.6.1
Uploader                                 : Brady
Web                                      : www.club-hd.com

Video
ID                                       : 1
Format                                   : AVC
Format/Info                              : Advanced Video Codec
Format profile                           : High@L4
Format settings                          : CABAC / 4 Ref Frames
Format settings, CABAC                   : Yes
Format settings, Reference frames        : 4 frames
Codec ID                                 : V_MPEG4/ISO/AVC
Duration                                 : 1 h 8 min
Bit rate mode                            : Constant
Bit rate                                 : 6 933 kb/s
Nominal bit rate                         : 10 000 kb/s
Width                                    : 1 920 pixels
Height                                   : 800 pixels
Display aspect ratio                     : 2.40:1
Frame rate mode                          : Constant
Frame rate                               : 23.976 (24000/1001) FPS
Color space                              : YUV
Chroma subsampling                       : 4:2:0
Bit depth                                : 8 bits
Scan type                                : Progressive
Bits/(Pixel*Frame)                       : 0.188
Stream size                              : 3.30 GiB (84%)
Language                                 : English
Default                                  : Yes
Forced                                   : No
Color range                              : Limited
Color primaries                          : BT.709
Transfer characteristics                 : BT.709
Matrix coefficients                      : BT.709

Audio #1
ID                                       : 2
Format                                   : E-AC-3
Format/Info                              : Enhanced AC-3
Commercial name                          : Dolby Digital Plus
Codec ID                                 : A_EAC3
Duration                                 : 1 h 8 min
Bit rate mode                            : Constant
Bit rate                                 : 640 kb/s
Channel(s)                               : 6 channels
Channel layout                           : L R C LFE Ls Rs
Sampling rate                            : 48.0 kHz
Frame rate                               : 31.250 FPS (1536 SPF)
Compression mode                         : Lossy
Stream size                              : 312 MiB (8%)
Title                                    : Latino
Language                                 : Spanish
Service kind                             : Complete Main
Default                                  : Yes
Forced                                   : No

Audio #2
ID                                       : 3
Format                                   : E-AC-3
Format/Info                              : Enhanced AC-3
Commercial name                          : Dolby Digital Plus
Codec ID                                 : A_EAC3
Duration                                 : 1 h 8 min
Bit rate mode                            : Constant
Bit rate                                 : 640 kb/s
Channel(s)                               : 6 channels
Channel layout                           : L R C LFE Ls Rs
Sampling rate                            : 48.0 kHz
Frame rate                               : 31.250 FPS (1536 SPF)
Compression mode                         : Lossy
Stream size                              : 312 MiB (8%)
Title                                    : Ingles
Language                                 : English
Service kind                             : Complete Main
Default                                  : No
Forced                                   : No

Text #1
ID                                       : 4
Format                                   : UTF-8
Codec ID                                 : S_TEXT/UTF8
Codec ID/Info                            : UTF-8 Plain Text
Duration                                 : 1 h 7 min
Bit rate                                 : 59 b/s
Count of elements                        : 953
Stream size                              : 29.2 KiB (0%)
Title                                    : Latino
Language                                 : Spanish
Default                                  : No
Forced                                   : No

Text #2
ID                                       : 5
Format                                   : UTF-8
Codec ID                                 : S_TEXT/UTF8
Codec ID/Info                            : UTF-8 Plain Text
Duration                                 : 52 min 20 s
Bit rate                                 : 2 b/s
Count of elements                        : 28
Stream size                              : 1.10 KiB (0%)
Title                                    : Forzados
Language                                 : Spanish
Default                                  : Yes
Forced                                   : No

Text #3
ID                                       : 6
Format                                   : UTF-8
Codec ID                                 : S_TEXT/UTF8
Codec ID/Info                            : UTF-8 Plain Text
Duration                                 : 1 h 5 min
Bit rate                                 : 67 b/s
Count of elements                        : 1148
Stream size                              : 32.7 KiB (0%)
Title                                    : Ingles
Language                                 : English
Default                                  : No
Forced                                   : No
CAPTURAS







DESCARGA
Todos los links son Intercambiables!



Disponible

👻 ¡VER ONLINE y DESCARGAR 1 LINK!👻


[Hidden content]



[Hidden content]



[Hidden content]



[Hidden content]



[Hidden content]

CONTRASEÑA
Código:
www.club-hd.com
 

Usuarios Que Están Viendo Este Tema (Total: 1, Miembros: 0, Invitados: 1)

Arriba