The Collection (2012) 720p BDRip Audio Inglés [Subt. Esp] (Terror. Thriller. Acción)

Maestro Revolver

Well-known member
Miembro del Staff
Administrador
Registro
9 Ago 2012
Mensajes
3.569
Reacciones
59.471
Puntos
113

Reputation:









TÍTULO ORIGINAL: The Collection
AÑO: 2012
DURACIÓN: 82 min.
PAÍS: USA
DIRECTOR: Marcus Dunstan
GUIÓN: Marcus Dunstan, Patrick Melton
REPARTO: Daniel Sharman, Josh Stewart, Christopher McDonald, Johanna Braddy, Erin Way, Navi Rawat, Lee Tergesen, Andre Royo, Brandon Molale, Justin Mortelliti, Eaddy Mays, Shannon Kane, Emma Fitzpatrick, William Peltz, Tim Griffin, Robert Pralgo
PRODUCTORA: LD Entertainment / Fortress Features
GÉNERO: Terror. Thriller. Acción | Secuela
: http://www.imdb.com/title/tt1748227/






Durante una fiesta a la que Elena va con sus amigos, un psicópata enmascarado asesina a los invitados. Elena es la única superviviente, pero antes de que pueda escapar, la encierran en un baúl que es transportado a un lugar desconocido. Afortunadamente para ella, hay un hombre que sabe exactamente donde está. Secuela de "The Collector" (2009).
























La pelicula NO tiene ninguna marca... solo colocamos el nombre de esta web en las capturas






Código:
General
Format                                   : Matroska
Format version                           : Version 2
File size                                : 3.14 GiB
Duration                                 : 1h 21mn
Overall bit rate                         : 5 514 Kbps
Movie name                               : www.club-hd.com
Encoded date                             : UTC 2013-01-27 00:25:47
Writing application                      : mkvmerge v5.7.0 ('The Whirlwind') built on Jul  8 2012 20:08:51
Writing library                          : libebml v1.2.3 + libmatroska v1.3.0

Video
ID                                       : 1
Format                                   : AVC
Format/Info                              : Advanced Video Codec
Format profile                           : High@L4.1
Format settings, CABAC                   : Yes
Format settings, ReFrames                : 5 frames
Codec ID                                 : V_MPEG4/ISO/AVC
Duration                                 : 1h 21mn
Bit rate                                 : 4 765 Kbps
Width                                    : 1 280 pixels
Height                                   : 536 pixels
Display aspect ratio                     : 2.40:1
Frame rate mode                          : Constant
Frame rate                               : 24.000 fps
Color space                              : YUV
Chroma subsampling                       : 4:2:0
Bit depth                                : 8 bits
Scan type                                : Progressive
Bits/(Pixel*Frame)                       : 0.289
Stream size                              : 2.72 GiB (86%)
Title                                    : www.club-hd.com
Writing library                          : x264 core 129 r2230 1cffe9f
Language                                 : English
Default                                  : Yes
Forced                                   : No

Audio
ID                                       : 2
Format                                   : AC-3
Format/Info                              : Audio Coding 3
Mode extension                           : CM (complete main)
Format settings, Endianness              : Big
Codec ID                                 : A_AC3
Duration                                 : 1h 21mn
Bit rate mode                            : Constant
Bit rate                                 : 640 Kbps
Channel(s)                               : 6 channels
Channel positions                        : Front: L C R, Side: L R, LFE
Sampling rate                            : 48.0 KHz
Bit depth                                : 16 bits
Compression mode                         : Lossy
Stream size                              : 374 MiB (12%)
Title                                    : www.club-hd.com
Language                                 : English
Default                                  : Yes
Forced                                   : No

Text
ID                                       : 3
Format                                   : UTF-8
Codec ID                                 : S_TEXT/UTF8
Codec ID/Info                            : UTF-8 Plain Text
Title                                    : www.club-hd.com
Language                                 : Spanish
Default                                  : Yes
Forced                                   : No










Enlaces de Mega y Fireload solo disponibles para Miembros VIP

Compra tu Membresía VIP y apoya a Club-HD!

ATENCIÓN! Tenemos TODO el material de Club-HD disponible por Mega y Fireload, enlaces 100% activos y online hasta la fecha

Llévate tus cuentas Mega PRO II gratis con tu membresía VIP!
Todos los posts vivos con links de Mega y Fireload.
Todo el material de Club-HD desbloqueado y sin publicidad.

Click Aquí para más información.




Enlaces de Mega y Fireload solo disponibles para Miembros VIP

Compra tu Membresía VIP y apoya a Club-HD!

ATENCIÓN! Tenemos TODO el material de Club-HD disponible por Mega y Fireload, enlaces 100% activos y online hasta la fecha

Llévate tus cuentas Mega PRO II gratis con tu membresía VIP!
Todos los posts vivos con links de Mega y Fireload.
Todo el material de Club-HD desbloqueado y sin publicidad.

Click Aquí para más información.



Para ver este contenido oculto, debes dar click en una de las siguientes reacciones : Like Like, Love Love, Haha Haha, Wow Wow, Sad Sad, Angry Angry

 
Última edición:

Pedrum

The Buckminster
Registro
28 Ago 2012
Mensajes
1.092
Reacciones
1.546
Puntos
113
Ubicación
Bahia Blanca

Reputation:

Gracias Jefe!!!!!!!!! Mas estrenos!!!!! Espectacular!!!!!!! :aplausos: :aplausos: :aplausos:

Saludos! victory
 

Mate78

Ladron de mi cerebro
Miembro del Staff
Súper Moderador
Registro
27 Ago 2012
Mensajes
1.237
Reacciones
924
Puntos
113

Reputation:

:aplausos::aplausos::aplausos:Excelente gracias R21 :dplgar::dplgar::dplgar:
 

Usuarios Que Están Viendo Este Tema (Total: 1, Miembros: 0, Invitados: 1)

Arriba