The Conjuring (2013) 720p BDRip Dual Latino-Inglés [Subt. Esp] (Terror. Thriller)

Maestro Revolver

Well-known member
Miembro del Staff
Administrador
Registro
9 Ago 2012
Mensajes
3.567








TÍTULO ORIGINAL: The Conjuring (The Warren Files)
AÑO: 2013
DURACIÓN: 112 min.
PAÍS: USA
DIRECTOR: James Wan
GUIÓN: Chad Hayes, Carey Hayes
REPARTO: Lili Taylor, Vera Farmiga, Patrick Wilson, Joey King, Ron Livingston, Mackenzie Foy, Shanley Caswell, Hayley McFarland, Sterling Jerins, Shannon Kook
PRODUCTORA: WB / New Line Cinema / Evergreen Media / The Safran Company
GÉNERO: Terror. Thriller | Sobrenatural. Casas encantadas. Basado en hechos reales. Posesiones/Exorcismos. Años 70
: http://www.imdb.com/title/tt1457767/






La película esta basada en la historia real de la familia Perron y sus encuentros sobrenaturales en su casa de Rhode Island. Ed y Lorraine Warren, investigadores de renombre en el mundo de los fenómenos paranormales, son llamados por una familia aterrorizada por una presencia oscura en una granja aislada. Obligados a enfrentarse a una poderosa entidad demoníaca, los Warren se encontraron atrapados en el caso más terrorífico de sus vidas...
























La pelicula NO tiene ninguna marca... solo colocamos el nombre de esta web en las capturas






Código:
General
Format                                   : Matroska
Format version                           : Version 2
File size                                : 3.99 GiB
Duration                                 : 1h 51mn
Overall bit rate                         : 5 100 Kbps
Movie name                               : www.club-hd.com
Encoded date                             : UTC 2013-10-07 23:27:26
Writing application                      : mkvmerge v5.7.0 ('The Whirlwind') built on Jul  8 2012 20:08:51
Writing library                          : libebml v1.2.3 + libmatroska v1.3.0

Video
ID                                       : 1
Format                                   : AVC
Format/Info                              : Advanced Video Codec
Format profile                           : High@L4.1
Format settings, CABAC                   : Yes
Format settings, ReFrames                : 5 frames
Codec ID                                 : V_MPEG4/ISO/AVC
Duration                                 : 1h 51mn
Bit rate                                 : 4 075 Kbps
Width                                    : 1 280 pixels
Height                                   : 536 pixels
Display aspect ratio                     : 2.40:1
Frame rate mode                          : Constant
Frame rate                               : 23.976 fps
Color space                              : YUV
Chroma subsampling                       : 4:2:0
Bit depth                                : 8 bits
Scan type                                : Progressive
Bits/(Pixel*Frame)                       : 0.248
Stream size                              : 3.11 GiB (78%)
Title                                    : www.club-hd.com
Writing library                          : x264 core 133 r2334 a3ac64b
Language                                 : English
Default                                  : Yes
Forced                                   : No

Audio #1
ID                                       : 2
Format                                   : AC-3
Format/Info                              : Audio Coding 3
Mode extension                           : CM (complete main)
Format settings, Endianness              : Big
Codec ID                                 : A_AC3
Duration                                 : 1h 51mn
Bit rate mode                            : Constant
Bit rate                                 : 384 Kbps
Channel(s)                               : 6 channels
Channel positions                        : Front: L C R, Side: L R, LFE
Sampling rate                            : 48.0 KHz
Bit depth                                : 16 bits
Compression mode                         : Lossy
Delay relative to video                  : 10ms
Stream size                              : 308 MiB (8%)
Title                                    : www.club-hd.com  >>  Latino
Language                                 : Spanish
Default                                  : Yes
Forced                                   : No

Audio #2
ID                                       : 3
Format                                   : AC-3
Format/Info                              : Audio Coding 3
Mode extension                           : CM (complete main)
Format settings, Endianness              : Big
Codec ID                                 : A_AC3
Duration                                 : 1h 51mn
Bit rate mode                            : Constant
Bit rate                                 : 640 Kbps
Channel(s)                               : 6 channels
Channel positions                        : Front: L C R, Side: L R, LFE
Sampling rate                            : 48.0 KHz
Bit depth                                : 16 bits
Compression mode                         : Lossy
Stream size                              : 513 MiB (13%)
Title                                    : www.club-hd.com  >>  Inglés
Language                                 : English
Default                                  : No
Forced                                   : No

Text #1
ID                                       : 4
Format                                   : UTF-8
Codec ID                                 : S_TEXT/UTF8
Codec ID/Info                            : UTF-8 Plain Text
Title                                    : Forzados
Language                                 : Spanish
Default                                  : Yes
Forced                                   : No

Text #2
ID                                       : 5
Format                                   : UTF-8
Codec ID                                 : S_TEXT/UTF8
Codec ID/Info                            : UTF-8 Plain Text
Title                                    : Completos
Language                                 : Spanish
Default                                  : No
Forced                                   : No

Menu
00:00:00.000                             : en:00:00:00.000
00:08:52.991                             : en:00:08:52.991
00:19:26.665                             : en:00:19:26.665
00:29:15.754                             : en:00:29:15.754
00:40:50.239                             : en:00:40:50.239
00:51:06.730                             : en:00:51:06.730
00:59:55.467                             : en:00:59:55.467
01:10:37.150                             : en:01:10:37.150
01:21:03.108                             : en:01:21:03.108
01:28:59.292                             : en:01:28:59.292
01:38:10.760                             : en:01:38:10.760
01:46:08.362                             : en:01:46:08.362








Enlaces de Mega y Google Drive solo disponibles para Miembros VIP

Compra tu Membresía VIP y apoya a Club-HD!

ATENCIÓN! Tenemos TODO el material de Club-HD disponible por Mega y Google Drive, enlaces 100% activos y online hasta la fecha

Llévate tus cuentas Mega PRO III gratis con tu membresía VIP!
Todos los posts vivos con links de Mega y Google Drive.
Todo el material de Club-HD desbloqueado y sin publicidad.

Click Aquí para más información.



Enlaces de Mega y Google Drive solo disponibles para Miembros VIP

Compra tu Membresía VIP y apoya a Club-HD!

ATENCIÓN! Tenemos TODO el material de Club-HD disponible por Mega y Google Drive, enlaces 100% activos y online hasta la fecha

Llévate tus cuentas Mega PRO III gratis con tu membresía VIP!
Todos los posts vivos con links de Mega y Google Drive.
Todo el material de Club-HD desbloqueado y sin publicidad.

Click Aquí para más información.



Para ver este contenido oculto, debes dar click en una de las siguientes reacciones : Like Like, Love Love, Haha Haha, Wow Wow, Sad Sad, Angry Angry



Para ver este contenido oculto, debes dar click en una de las siguientes reacciones : Like Like, Love Love, Haha Haha, Wow Wow, Sad Sad, Angry Angry
 
Última edición por un moderador:

Joker

Well-known member
Miembro del Staff
Súper Moderador
Registro
27 Ago 2012
Mensajes
1.349
Ubicación
Arkham Asylum
Desc_g_

Excelente Master!!! Super estreno!!! :OHHH:

Y en Dual :OHHH:

Me la llevo para por fin ver si es tan buena como dicen, espero que si porque hace tiempo que no veo una buena de terror :(

Muchisimas Gracias Master!!! :aplausos: :aplausos: :LXR:

Saludos :D

 

Usuarios Que Están Viendo Este Tema (Total: 1, Miembros: 0, Invitados: 1)

Quién Leyó Este Tema (Total Miembros: 2)

Arriba