The Crow (1994) m-720p Dual Latino-Inglés [Subt. Esp-Ing] (Fantástico. Acción)

Maestro Revolver

Well-known member
Miembro del Staff
Administrador
Registro
9 Ago 2012
Mensajes
3.569
Reacciones
59.341
Puntos
113

Reputation:









TÍTULO ORIGINAL: The Crow
AÑO: 1994
DURACIÓN: 97 min.
PAÍS: USA
DIRECTOR: Alex Proyas
GUIÓN: David Schow & John Shirley (Cómic: James O'Barr)
REPARTO: Brandon Lee, Ernie Hudson, Michael Wincott, Bai Ling, David Patrick Kelly, Angel David, Anna Thomson (AKA Anna Levine), Rochelle David
PRODUCTORA: Miramax / Gaumont
GÉNERO: Fantástico. Acción | Película de culto. Cómic
http://www.imdb.com/title/tt0109506/





Eric Draven y Shelly Websyter están a punto de casarse, pero la noche antes del enlace son asesinados brutalmente. Un año después, el alma de Eric vuelve a la Tierra en forma de cuervo para vengarse.
























La pelicula NO tiene ninguna marca... solo colocamos el nombre de esta web en las capturas






Código:
General
Format                           : Matroska
Format version                   : Version 2
File size                        : 2.44 GiB
Duration                         : 1h 41mn
Overall bit rate                 : 3 431 Kbps
Movie name                       : www.club-hd.com
Encoded date                     : UTC 2012-10-17 23:09:56
Writing application              : mkvmerge v5.7.0 ('The Whirlwind') built on Jul  8 2012 20:08:51
Writing library                  : libebml v1.2.3 + libmatroska v1.3.0

Video
ID                               : 1
Format                           : AVC
Format/Info                      : Advanced Video Codec
Format profile                   : High@L4.1
Format settings, CABAC           : Yes
Format settings, ReFrames        : 8 frames
Codec ID                         : V_MPEG4/ISO/AVC
Duration                         : 1h 41mn
Bit rate                         : 2 790 Kbps
Width                            : 1 280 pixels
Height                           : 694 pixels
Display aspect ratio             : 16:9
Frame rate                       : 23.976 fps
Color space                      : YUV
Chroma subsampling               : 4:2:0
Bit depth                        : 8 bits
Scan type                        : Progressive
Bits/(Pixel*Frame)               : 0.131
Stream size                      : 1.93 GiB (79%)
Title                            : www.club-hd.com
Writing library                  : x264 core 119 r2106 07efeb4
Language                         : English
Default                          : Yes
Forced                           : No

Audio #1
ID                               : 2
Format                           : AC-3
Format/Info                      : Audio Coding 3
Mode extension                   : CM (complete main)
Codec ID                         : A_AC3
Duration                         : 1h 41mn
Bit rate mode                    : Constant
Bit rate                         : 192 Kbps
Channel(s)                       : 2 channels
Channel positions                : Front: L R
Sampling rate                    : 48.0 KHz
Bit depth                        : 16 bits
Compression mode                 : Lossy
Delay relative to video          : 8s 100ms
Stream size                      : 140 MiB (6%)
Title                            : www.club-hd.com  >>  Latino
Language                         : Spanish
Default                          : Yes
Forced                           : No

Audio #2
ID                               : 3
Format                           : AC-3
Format/Info                      : Audio Coding 3
Mode extension                   : CM (complete main)
Codec ID                         : A_AC3
Duration                         : 1h 41mn
Bit rate mode                    : Constant
Bit rate                         : 448 Kbps
Channel(s)                       : 6 channels
Channel positions                : Front: L C R, Side: L R, LFE
Sampling rate                    : 48.0 KHz
Bit depth                        : 16 bits
Compression mode                 : Lossy
Stream size                      : 326 MiB (13%)
Title                            : www.club-hd.com  >>  Inglés
Language                         : English
Default                          : No
Forced                           : No

Text #1
ID                               : 4
Format                           : UTF-8
Codec ID                         : S_TEXT/UTF8
Codec ID/Info                    : UTF-8 Plain Text
Language                         : Spanish
Default                          : No
Forced                           : No

Text #2
ID                               : 5
Format                           : UTF-8
Codec ID                         : S_TEXT/UTF8
Codec ID/Info                    : UTF-8 Plain Text
Language                         : English
Default                          : No
Forced                           : No

Menu
00:00:00.000                     : en:Chapter 1
00:04:35.066                     : en:Chapter 2
00:12:59.487                     : en:Chapter 3
00:17:00.186                     : en:Chapter 4
00:22:07.159                     : en:Chapter 5
00:27:53.589                     : en:Chapter 6
00:31:49.825                     : en:Chapter 7
00:35:28.793                     : en:Chapter 8
00:43:04.540                     : en:Chapter 9
00:48:42.837                     : en:Chapter 10
00:52:55.881                     : en:Chapter 11
00:57:08.467                     : en:Chapter 12
01:02:35.794                     : en:Chapter 13
01:09:32.585                     : en:Chapter 14
01:18:38.297                     : en:Chapter 15
01:27:27.492                     : en:Chapter 16






NOTA: En el audio latino hay escenas donde hablan en inglés. Por falta de tiempo no pude hacer los sub forzados, pero el que tenga algún tiempito lo puede hacer no? (por MP) jeje estaríamos muy agradecidos :) . De todas formas pueden activar los subtítulos completos para saber que dicen en las partes en ingles (del audio latino).
Saludos amigos y que disfruten de esta película.











Enlaces de Mega y Fireload solo disponibles para Miembros VIP

Compra tu Membresía VIP y apoya a Club-HD!

ATENCIÓN! Tenemos TODO el material de Club-HD disponible por Mega y Fireload, enlaces 100% activos y online hasta la fecha

Llévate tus cuentas Mega PRO II gratis con tu membresía VIP!
Todos los posts vivos con links de Mega y Fireload.
Todo el material de Club-HD desbloqueado y sin publicidad.

Click Aquí para más información.




Enlaces de Mega y Fireload solo disponibles para Miembros VIP

Compra tu Membresía VIP y apoya a Club-HD!

ATENCIÓN! Tenemos TODO el material de Club-HD disponible por Mega y Fireload, enlaces 100% activos y online hasta la fecha

Llévate tus cuentas Mega PRO II gratis con tu membresía VIP!
Todos los posts vivos con links de Mega y Fireload.
Todo el material de Club-HD desbloqueado y sin publicidad.

Click Aquí para más información.


Para ver este contenido oculto, debes dar click en una de las siguientes reacciones : Like Like, Love Love, Haha Haha, Wow Wow, Sad Sad, Angry Angry

 
Última edición:

Max

Admin
Miembro del Staff
Administrador
Registro
8 Ago 2012
Mensajes
5.583
Reacciones
23.722
Puntos
113
Ubicación
Disco C

Reputation:

Y de donde fuiste a robar esto LADRÓN! jajaja que peliculón te mandaste esta vez Pichón. A esta si que la bajo pero hoy mismo!! Segui asi mi amigo R21 que vamos muy bien! M_Bu3n0:thank-you:
 

Phoenix7

New member
Registro
28 Ago 2012
Mensajes
25
Reacciones
3
Puntos
0
Edad
36

Reputation:

NO LO PUEDO CREER!!!! es la ultima película que pensé que ver en HD un excelente aporte Revolver EXCELENTE L0L_1
 

Yonatan

Admin
Miembro del Staff
Administrador
Registro
27 Ago 2012
Mensajes
1.768
Reacciones
3.728
Puntos
113
Edad
28
Ubicación
Chile, Sexta Región

Reputation:

Grande maestro :LXR: jamas pense verla en calidad HD a descargarla ahora mismo, capo
gran aporte y gran pelicula.
Amigo siempre sabes como impresionarnos con todos tus grandes aportes e incluso con peliculas que jamas pensamos ver en HD como esta pelicula grande maestro
gracias mi amigo :dplgar:

Saludos
 

Pedrum

The Buckminster
Registro
28 Ago 2012
Mensajes
1.092
Reacciones
1.546
Puntos
113
Ubicación
Bahia Blanca

Reputation:

Huuu pero que buen aporte maestro, muchas gracias! Siempre sorprendiéndonos ustedes dos...que bárbaro. Estaría bueno que algún miembro del club que conoce del tema nos comente un poquito la mística que rodea la muerte de este gran actor "Brandon Lee", ligada excepcionalmente a la de su padre " Bruce Lee". Un tema muy interesante!!!

Saludos! victory
 

Usuarios Que Están Viendo Este Tema (Total: 1, Miembros: 0, Invitados: 1)

Arriba