The Dark Knight (2008) IMAX m-720p Dual Latino-Inglés [Subt. Esp-Ing] (Thriller. Acción. Drama)

Maestro Revolver

Well-known member
Miembro del Staff
Administrador
Registro
9 Ago 2012
Mensajes
3.569
Reacciones
59.471
Puntos
113

Reputation:









TÍTULO ORIGINAL: The Dark Knight
AÑO: 2008
DURACIÓN: 152 min.
PAÍS: USA
DIRECTOR: Christopher Nolan
GUIÓN: Christopher Nolan, David S. Goyer, Jonathan Nolan (Personajes: Bob Kane)
REPARTO: Christian Bale, Heath Ledger, Aaron Eckhart, Michael Caine, Gary Oldman, Maggie Gyllenhaal, Morgan Freeman, Eric Roberts, Cillian Murphy, Anthony Michael Hall, Michael Jai White, William Fichtner, Edison Chen, Monique Curnen, Chin Han, Nestor Carbonell, Ritchie Coster, Keith Szarabajka, Colin McFarlane, Melinda McGraw, Nathan Gamble, Michael Vieau, Tommy 'Tiny' Lister
PRODUCTORA: Coproducción USA-Reino Unido Warner Bros. Pictures / Legendary Pictures
GÉNERO: Thriller. Acción. Drama | Superhéroes. Cómic. DC Comics. Secuela. Película de culto
http://www.imdb.com/title/tt0468569/

PREMIOS: 2008: 2 Oscar: Mejor actor secundario (Heath Ledger), montaje de sonido. 8 nominaciones
2008: Globo de Oro: Mejor actor secundario (Heath Ledger)
2008: Premios BAFTA: Mejor actor secundario (Heath Ledger). 9 nominaciones
2008: Festival de Toronto: Mejor actor secundario
2008: Premios Goya: Nominada a la mejor Película Europea
2008: Asociación de Críticos de Los Angeles: Mejor actor secundario (Ledger)






Batman (Christian Bale) regresa para continuar su guerra contra el crimen. Con la ayuda del teniente Jim Gordon (Gary Oldman) y del Fiscal del Distrito Harvey Dent (Aaron Eckhart), Batman se propone destruir el crimen organizado en la ciudad de Gotham. El triunvirato demuestra su eficacia, pero, de repente, aparece Joker (Heath Ledger), un nuevo criminal que desencadena el caos y tiene aterrados a los ciudadanos.
























La pelicula NO tiene ninguna marca... solo colocamos el nombre de esta web en las capturas






Código:
General
Format                           : Matroska
Format version                   : Version 2
File size                        : 4.28 GiB
Duration                         : 2h 32mn
Overall bit rate                 : 4 026 Kbps
Movie name                       : www.club-hd.com
Encoded date                     : UTC 2012-11-15 03:15:58
Writing application              : mkvmerge v5.7.0 ('The Whirlwind') built on Jul  8 2012 20:08:51
Writing library                  : libebml v1.2.3 + libmatroska v1.3.0

Video
ID                               : 1
Format                           : AVC
Format/Info                      : Advanced Video Codec
Format profile                   : High@L4.1
Format settings, CABAC           : Yes
Format settings, ReFrames        : 9 frames
Codec ID                         : V_MPEG4/ISO/AVC
Duration                         : 2h 32mn
Bit rate                         : 2 745 Kbps
Width                            : 1 280 pixels
Height                           : 720 pixels
Display aspect ratio             : 16:9
Frame rate                       : 23.976 fps
Color space                      : YUV
Chroma subsampling               : 4:2:0
Bit depth                        : 8 bits
Scan type                        : Progressive
Bits/(Pixel*Frame)               : 0.124
Stream size                      : 2.83 GiB (66%)
Title                            : www.club-hd.com
Writing library                  : x264 core 122 r2183 c522ad1
Language                         : English
Default                          : Yes
Forced                           : No

Audio #1
ID                               : 2
Format                           : AC-3
Format/Info                      : Audio Coding 3
Mode extension                   : CM (complete main)
Codec ID                         : A_AC3
Duration                         : 2h 32mn
Bit rate mode                    : Constant
Bit rate                         : 640 Kbps
Channel(s)                       : 6 channels
Channel positions                : Front: L C R, Side: L R, LFE
Sampling rate                    : 48.0 KHz
Bit depth                        : 16 bits
Compression mode                 : Lossy
Delay relative to video          : 100ms
Stream size                      : 697 MiB (16%)
Title                            : www.club-hd.com  >>  Latino
Language                         : Spanish
Default                          : Yes
Forced                           : No

Audio #2
ID                               : 3
Format                           : AC-3
Format/Info                      : Audio Coding 3
Mode extension                   : CM (complete main)
Codec ID                         : A_AC3
Duration                         : 2h 32mn
Bit rate mode                    : Constant
Bit rate                         : 640 Kbps
Channel(s)                       : 6 channels
Channel positions                : Front: L C R, Side: L R, LFE
Sampling rate                    : 48.0 KHz
Bit depth                        : 16 bits
Compression mode                 : Lossy
Stream size                      : 697 MiB (16%)
Title                            : www.club-hd.com  >>  Inglés
Language                         : English
Default                          : No
Forced                           : No

Text #1
ID                               : 4
Format                           : UTF-8
Codec ID                         : S_TEXT/UTF8
Codec ID/Info                    : UTF-8 Plain Text
Language                         : Spanish
Default                          : No
Forced                           : No

Text #2
ID                               : 5
Format                           : UTF-8
Codec ID                         : S_TEXT/UTF8
Codec ID/Info                    : UTF-8 Plain Text
Language                         : English
Default                          : No
Forced                           : No

Menu
00:00:00.000                     : en:Robbery Gone Stranger
00:06:23.966                     : en:Intimidate Mode
00:10:36.260                     : en:Unknown Limits
00:13:52.581                     : en:Last Game in Town
00:17:54.198                     : en:Protector's Mantle
00:21:39.339                     : en:Kill the Batman
00:26:10.026                     : en:Hong Kong Holiday
00:29:36.274                     : en:Why So Serious?
00:31:42.483                     : en:Landing Lau
00:37:49.058                     : en:Men of Their Word
00:43:34.069                     : en:Hero With a Face
00:46:39.546                     : en:Somebody With Access
00:48:57.768                     : en:Tonight's Entertainment
00:53:19.446                     : en:Watch the World Burn
00:57:15.640                     : en:Your Plan Is Blackmail
00:59:26.354                     : en:Dishonor Guard
01:03:59.627                     : en:No Rules
01:08:23.557                     : en:Right Choice
01:10:48.327                     : en:I Am the Batman
01:14:24.918                     : en:Trip to County
01:18:05.639                     : en:Bat-Pod Faceoff
01:22:22.437                     : en:We Got Him
01:24:48.583                     : en:Good Cop, Bad Cop
01:30:48.442                     : en:Two-Way Race
01:34:04.972                     : en:Burned Down
01:39:57.783                     : en:Harvey Two-Face
01:42:05.494                     : en:Better Class of Criminal
01:44:59.918                     : en:Watch Out
01:47:00.872                     : en:Agent of Chaos
01:51:09.913                     : en:Hospital Boom
01:54:14.639                     : en:Too Much Power
01:57:04.017                     : en:Unlucky
02:00:14.248                     : en:Ferry Scarry
02:03:37.576                     : en:Prewitt Building Siege
02:09:07.614                     : en:Verge of Fireworks
02:12:27.314                     : en:Battle for Gotham's Soul
02:15:22.781                     : en:One Pointing the Gun
02:19:58.681                     : en:Dark Knight
02:24:26.658                     : en:End Credits










Enlaces de Mega y Fireload solo disponibles para Miembros VIP

Compra tu Membresía VIP y apoya a Club-HD!

ATENCIÓN! Tenemos TODO el material de Club-HD disponible por Mega y Fireload, enlaces 100% activos y online hasta la fecha

Llévate tus cuentas Mega PRO II gratis con tu membresía VIP!
Todos los posts vivos con links de Mega y Fireload.
Todo el material de Club-HD desbloqueado y sin publicidad.

Click Aquí para más información.




Enlaces de Mega y Fireload solo disponibles para Miembros VIP

Compra tu Membresía VIP y apoya a Club-HD!

ATENCIÓN! Tenemos TODO el material de Club-HD disponible por Mega y Fireload, enlaces 100% activos y online hasta la fecha

Llévate tus cuentas Mega PRO II gratis con tu membresía VIP!
Todos los posts vivos con links de Mega y Fireload.
Todo el material de Club-HD desbloqueado y sin publicidad.

Click Aquí para más información.



Para ver este contenido oculto, debes dar click en una de las siguientes reacciones : Like Like, Love Love, Haha Haha, Wow Wow, Sad Sad, Angry Angry

 
Última edición:

elgrandario

Well-known member
Registro
29 Ago 2012
Mensajes
1.006
Reacciones
147
Puntos
63
Ubicación
Lima, Perú

Reputation:

Creo que ésta sí me la bajo, para hacerle la comparación con la que ya tengo. De todas maneras, las dos son buenísimos. Todas las de Batman son buenísimas, jajajaja. Gracias por los buenos aportes. Saludos desde Perú!
 

sunker-123

New member
Registro
27 Ago 2012
Mensajes
2.433
Reacciones
200
Puntos
0
Edad
31

Reputation:

Muchas Gracias R21, me quedo con esta version...:dplgar:
 

Usuarios Que Están Viendo Este Tema (Total: 1, Miembros: 0, Invitados: 1)

Arriba