The Departed (2006) m-720p Dual Latino-Inglés [Subt. Esp] (Thriller. Drama. Acción)

Maestro Revolver

Well-known member
Miembro del Staff
Administrador
Registro
9 Ago 2012
Mensajes
3.567








TÍTULO ORIGINAL: The Departed
AÑO: 2006
DURACIÓN: 149 min.
PAÍS: USA
DIRECTOR: Martin Scorsese
GUIÓN: William Monahan (Remake: Alan Mak, Felix Chong)
REPARTO: Leonardo DiCaprio, Matt Damon, Jack Nicholson, Mark Wahlberg, Vera Farmiga, Alec Baldwin, Martin Sheen, Ray Winstone, Kevin Corrigan, James Badge Dale, David O'Hara, Anthony Anderson, Mark Rolston, Conor Donovan
PRODUCTORA: Warner Bros. Pictures
GÉNERO: Thriller. Drama. Acción | Mafia. Remake. Crimen. Policíaco
: http://www.imdb.com/title/tt0407887/


Premios: 2006: 4 Oscars: Mejor película, director, guión adaptado y montaje. 5 nominaciones
2006: Globo de Oro: Mejor director. 6 nominaciones
2006: Premios BAFTA: 6 nominaciones, incluyendo mejor montaje, película y guión adap.
2006: National Board of Review (NBR): Mejor director, reparto
2006: Círculo de críticos de Nueva York: Mejor director
2006: 2 Critics' Choice Awards: Mejor película, director. 7 nominaciones






El Departamento de Policía de Massachussets se enfrenta a la mayor banda de crimen organizado de la ciudad. La estrategia consiste en acabar desde dentro con el poderoso jefe de la mafia Frank Costello (Jack Nicholson). El encargado de infiltrarse en la banda es un joven novato, Billy Costigan (Leonardo DiCaprio). Mientras Billy intenta ganarse la confianza de Costello, otro joven policía, Colin Sullivan (Matt Damon), sube rápidamente de categoría y ocupa un puesto en la unidad de Investigaciones Especiales, grupo de élite cuya misión también es acabar con Costello.
























La pelicula NO tiene ninguna marca... solo colocamos el nombre de esta web en las capturas






Código:
General
Format                                   : Matroska
Format version                           : Version 2
File size                                : 3.50 GiB
Duration                                 : 2h 31mn
Overall bit rate                         : 3 309 Kbps
Movie name                               : www.club-hd.com
Encoded date                             : UTC 2013-06-26 01:31:57
Writing application                      : mkvmerge v5.7.0 ('The Whirlwind') built on Jul  8 2012 20:08:51
Writing library                          : libebml v1.2.3 + libmatroska v1.3.0

Video
ID                                       : 1
Format                                   : AVC
Format/Info                              : Advanced Video Codec
Format profile                           : High@L4.1
Format settings, CABAC                   : Yes
Format settings, ReFrames                : 5 frames
Codec ID                                 : V_MPEG4/ISO/AVC
Duration                                 : 2h 31mn
Bit rate                                 : 2 411 Kbps
Width                                    : 1 280 pixels
Height                                   : 534 pixels
Display aspect ratio                     : 2.40:1
Frame rate mode                          : Constant
Frame rate                               : 23.976 fps
Color space                              : YUV
Chroma subsampling                       : 4:2:0
Bit depth                                : 8 bits
Scan type                                : Progressive
Bits/(Pixel*Frame)                       : 0.147
Stream size                              : 2.55 GiB (73%)
Title                                    : www.club-hd.com
Writing library                          : x264 core 129 r2245 bc13772
Language                                 : English
Default                                  : Yes
Forced                                   : No

Audio #1
ID                                       : 2
Format                                   : AC-3
Format/Info                              : Audio Coding 3
Mode extension                           : CM (complete main)
Format settings, Endianness              : Big
Codec ID                                 : A_AC3
Duration                                 : 2h 31mn
Bit rate mode                            : Constant
Bit rate                                 : 192 Kbps
Channel(s)                               : 2 channels
Channel positions                        : Front: L R
Sampling rate                            : 48.0 KHz
Bit depth                                : 16 bits
Compression mode                         : Lossy
Stream size                              : 208 MiB (6%)
Title                                    : www.club-hd.com  >>  Latino
Language                                 : Spanish
Default                                  : Yes
Forced                                   : No

Audio #2
ID                                       : 3
Format                                   : AC-3
Format/Info                              : Audio Coding 3
Mode extension                           : CM (complete main)
Format settings, Endianness              : Big
Codec ID                                 : A_AC3
Duration                                 : 2h 31mn
Bit rate mode                            : Constant
Bit rate                                 : 640 Kbps
Channel(s)                               : 6 channels
Channel positions                        : Front: L C R, Side: L R, LFE
Sampling rate                            : 48.0 KHz
Bit depth                                : 16 bits
Compression mode                         : Lossy
Stream size                              : 693 MiB (19%)
Title                                    : www.club-hd.com  >>  Inglés
Language                                 : English
Default                                  : No
Forced                                   : No

Text
ID                                       : 4
Format                                   : UTF-8
Codec ID                                 : S_TEXT/UTF8
Codec ID/Info                            : UTF-8 Plain Text
Language                                 : Spanish
Default                                  : No
Forced                                   : No








Enlaces de Mega y Google Drive solo disponibles para Miembros VIP

Compra tu Membresía VIP y apoya a Club-HD!

ATENCIÓN! Tenemos TODO el material de Club-HD disponible por Mega y Google Drive, enlaces 100% activos y online hasta la fecha

Llévate tus cuentas Mega PRO III gratis con tu membresía VIP!
Todos los posts vivos con links de Mega y Google Drive.
Todo el material de Club-HD desbloqueado y sin publicidad.

Click Aquí para más información.


Enlaces de Mega y Google Drive solo disponibles para Miembros VIP

Compra tu Membresía VIP y apoya a Club-HD!

ATENCIÓN! Tenemos TODO el material de Club-HD disponible por Mega y Google Drive, enlaces 100% activos y online hasta la fecha

Llévate tus cuentas Mega PRO III gratis con tu membresía VIP!
Todos los posts vivos con links de Mega y Google Drive.
Todo el material de Club-HD desbloqueado y sin publicidad.

Click Aquí para más información.


Para ver este contenido oculto, debes dar click en una de las siguientes reacciones : Like Like, Love Love, Haha Haha, Wow Wow, Sad Sad, Angry Angry


Para ver este contenido oculto, debes dar click en una de las siguientes reacciones : Like Like, Love Love, Haha Haha, Wow Wow, Sad Sad, Angry Angry
 
Última edición por un moderador:

Ezze

Well-known member
Miembro del Staff
Súper Moderador
Miembro VIP
Registro
28 Ago 2012
Mensajes
1.666
Ubicación
En la Torre de Observación
Gracias, gracias, gracias :D Aunque no me crean... será la primera vez que vea esta película xD Muchas gracias Revolver :aplausos: Saludos genio bye
 

Pedrum

The Buckminster
Registro
28 Ago 2012
Mensajes
1.092
Ubicación
Bahia Blanca
Que grande esta tarjeta!!! Excelente remake de Martin Scorsese!! Muy recomendada para aquellos que les gustan los films de gangters.

Gracias por traerla Revolver! victory
 

Usuarios Que Están Viendo Este Tema (Total: 1, Miembros: 0, Invitados: 1)

Quién Leyó Este Tema (Total Miembros: 3)

Arriba