The Dictator (2012) m-1080p Dual Latino-Inglés [Subt. Esp-ing] (Comedia)

Maestro Revolver

Well-known member
Miembro del Staff
Administrador
Registro
9 Ago 2012
Mensajes
3.569
Reacciones
59.471
Puntos
113

Reputation:









TÍTULO ORIGINAL: The Dictator
AÑO: 2012
DURACIÓN: 83 min.
PAÍS: USA
DIRECTOR: Larry Charles
GUIÓN: Sacha Baron Cohen, Alec Berg, David Mandel, Jeff Schaffer
REPARTO: Sacha Baron Cohen, Anna Faris, Ben Kingsley, Jason Mantzoukas, Bobby Lee, Anthony Mangano, Jeff Grossman, Megan Fox, John C. Reilly, Edward Norton
PRODUCTORA: Paramount Pictures
GÉNERO: Comedia | Comedia negra. Parodia. Política
http://www.imdb.com/title/tt1645170/






El General Almirante Haffaz Aladeen (Sacha Baron Cohen) es un dictador capaz de arriesgar su vida para impedir que la democracia se establezca en el país al que oprime tan amorosamente y con tanto cariño. Rico en petróleo y bastante aislado, el estado norteafricano de Wadiya lleva siendo gobernado por el vehementemente anti-occidental Aladeen desde que éste tenía seis años, cuando fue nombrado Líder Supremo tras la desafortunada muerte de su padre, muerto por desgracia en un accidente de caza, alcanzado por 97 balas y una granada de mano. Desde que accedió al poder absoluto, el consejero de más confianza de Aladeen es su tío Tamir (Ben Kingsley), quien ejerce de Jefe de la Policía Secreta, Jefe de Seguridad y Proveedor de Mujeres. Por desgracia para Aladeen y sus consejeros, el muy vilipendiado Occidente ha comenzado a meter las narices en los asuntos de Wadiya, y las Naciones Unidas han sancionado repetidas veces al país en la última década, pero el Dictador no va a consentir que un inspector del Consejo de Seguridad entre en sus instalaciones secretas de armamento... ¿es que acaso no saben lo que quiere decir "secreto"? Pero después de que un intento de asesinarle le cueste la vida a otro de los acólitos del Líder Supremo, Tamir convence a Aladeen de que vaya a Nueva York a solucionar la cuestión de las Naciones Unidas.
























La pelicula NO tiene ninguna marca... solo colocamos el nombre de esta web en las capturas






Código:
General
Format                           : Matroska
Format version                   : Version 2
File size                        : 3.23 GiB
Duration                         : 1h 23mn
Overall bit rate                 : 5 555 Kbps
Movie name                       : www.club-hd.com
Encoded date                     : UTC 2012-10-25 00:12:53
Writing application              : mkvmerge v5.7.0 ('The Whirlwind') built on Jul  8 2012 20:08:51
Writing library                  : libebml v1.2.3 + libmatroska v1.3.0

Video
ID                               : 1
Format                           : AVC
Format/Info                      : Advanced Video Codec
Format profile                   : Main@L4.0
Format settings, CABAC           : Yes
Format settings, ReFrames        : 4 frames
Codec ID                         : V_MPEG4/ISO/AVC
Duration                         : 1h 23mn
Bit rate                         : 4 164 Kbps
Nominal bit rate                 : 4 600 Kbps
Width                            : 1 920 pixels
Height                           : 1 080 pixels
Display aspect ratio             : 16:9
Frame rate                       : 23.976 fps
Color space                      : YUV
Chroma subsampling               : 4:2:0
Bit depth                        : 8 bits
Scan type                        : Progressive
Bits/(Pixel*Frame)               : 0.084
Stream size                      : 2.42 GiB (75%)
Title                            : www.club-hd.com
Writing library                  : x264 core 112
Language                         : English
Default                          : Yes
Forced                           : No
Color primaries                  : BT.709-5, BT.1361, IEC 61966-2-4, SMPTE RP177
Transfer characteristics         : BT.709-5, BT.1361
Matrix coefficients              : BT.709-5, BT.1361, IEC 61966-2-4 709, SMPTE RP177

Audio #1
ID                               : 2
Format                           : AC-3
Format/Info                      : Audio Coding 3
Mode extension                   : CM (complete main)
Codec ID                         : A_AC3
Duration                         : 1h 23mn
Bit rate mode                    : Constant
Bit rate                         : 640 Kbps
Channel(s)                       : 6 channels
Channel positions                : Front: L C R, Side: L R, LFE
Sampling rate                    : 48.0 KHz
Bit depth                        : 16 bits
Compression mode                 : Lossy
Stream size                      : 381 MiB (12%)
Title                            : www.club-hd.com  >>  Latino
Language                         : Spanish
Default                          : Yes
Forced                           : No

Audio #2
ID                               : 3
Format                           : AC-3
Format/Info                      : Audio Coding 3
Mode extension                   : CM (complete main)
Codec ID                         : A_AC3
Duration                         : 1h 23mn
Bit rate mode                    : Constant
Bit rate                         : 640 Kbps
Channel(s)                       : 6 channels
Channel positions                : Front: L C R, Side: L R, LFE
Sampling rate                    : 48.0 KHz
Bit depth                        : 16 bits
Compression mode                 : Lossy
Stream size                      : 381 MiB (12%)
Title                            : www.club-hd.com  >>  Inglés
Language                         : English
Default                          : No
Forced                           : No

Text #1
ID                               : 4
Format                           : UTF-8
Codec ID                         : S_TEXT/UTF8
Codec ID/Info                    : UTF-8 Plain Text
Language                         : Spanish
Default                          : No
Forced                           : No

Text #2
ID                               : 5
Format                           : UTF-8
Codec ID                         : S_TEXT/UTF8
Codec ID/Info                    : UTF-8 Plain Text
Language                         : English
Default                          : No
Forced                           : No

Menu
00:00:00.000                     : en:Chapter 1
00:07:11.639                     : en:Chapter 2
00:11:14.298                     : en:Chapter 3
00:16:48.465                     : en:Chapter 4
00:21:18.902                     : en:Chapter 5
00:26:36.928                     : en:Chapter 6
00:32:15.058                     : en:Chapter 7
00:38:15.751                     : en:Chapter 8
00:42:37.388                     : en:Chapter 9
00:48:46.465                     : en:Chapter 10
00:55:37.792                     : en:Chapter 11
01:01:48.705                     : en:Chapter 12
01:06:46.460                     : en:Chapter 13
01:13:32.241                     : en:Chapter 14










Enlaces de Mega y Fireload solo disponibles para Miembros VIP

Compra tu Membresía VIP y apoya a Club-HD!

ATENCIÓN! Tenemos TODO el material de Club-HD disponible por Mega y Fireload, enlaces 100% activos y online hasta la fecha

Llévate tus cuentas Mega PRO II gratis con tu membresía VIP!
Todos los posts vivos con links de Mega y Fireload.
Todo el material de Club-HD desbloqueado y sin publicidad.

Click Aquí para más información.




Enlaces de Mega y Fireload solo disponibles para Miembros VIP

Compra tu Membresía VIP y apoya a Club-HD!

ATENCIÓN! Tenemos TODO el material de Club-HD disponible por Mega y Fireload, enlaces 100% activos y online hasta la fecha

Llévate tus cuentas Mega PRO II gratis con tu membresía VIP!
Todos los posts vivos con links de Mega y Fireload.
Todo el material de Club-HD desbloqueado y sin publicidad.

Click Aquí para más información.


Para ver este contenido oculto, debes dar click en una de las siguientes reacciones : Like Like, Love Love, Haha Haha, Wow Wow, Sad Sad, Angry Angry

 
Última edición:

Joker

Well-known member
Miembro del Staff
Súper Moderador
Registro
27 Ago 2012
Mensajes
1.349
Reacciones
3.775
Puntos
113
Ubicación
Arkham Asylum

Reputation:

Desc_g_

A ver que tal, ya tenia la version 720p y no la he visto =S pero sirve de que la veo y la reemplazo xD

Gracias

Saludos :D
 

carlos610

Well-known member
Registro
28 Ago 2012
Mensajes
1.777
Reacciones
961
Puntos
113
Edad
38
Ubicación
angol, araucania

Reputation:

estupendo revover21 la descargo y la veo al ratogracias saludos

estupendo revolver21 la descargo y la veo al rato gracias saludos
 
Última edición por un moderador:

Rob Stark

New member
Registro
28 Ago 2012
Mensajes
243
Reacciones
29
Puntos
0
Edad
31

Reputation:

la estaba esperando en audio latino aunque es de 1080p no pesa mucho así que a descargarla, gracias :LXR:
 

Usuarios Que Están Viendo Este Tema (Total: 1, Miembros: 0, Invitados: 1)

Arriba