• Este aviso va dirigido a todos los nuevos miembros recien llegados a Club-HD. Les recordamos que la direccion URL de este sitio web es , asi que deben acceder únicamente por esta URL. Sean todos bienvenidos al Club!

The Exorcism of Emily Rose (2005) Latino-Inglés 1080p BDRip [Multi-Vobsub] [HEVC-10bit] (Terror, Intriga)

REMREM

Well-known member
Miembro del Staff
Moderador
Uploader
Registrado
1 Oct 2017
Mensajes
244
Puntos de reacción
2,444
Puntos
93




SINOPSIS:

La Iglesia Católica tomó una decisión poco común al reconocer oficialmente la posesión demoníaca de una
joven estudiante americana de 19 años. Emily Rose deja la seguridad de su hogar en un medio rural para ir a la
universidad. Una noche, sola en su dormitorio, sufre la primera alucinación aterradora y pierde el conocimiento.
Como estas experiencias son cada vez más frecuentes e intensas, Emily, católica devota, decide recurrir a un sacerdote
y someterse a un exorcismo que le cuesta la vida. El padre Moore es entonces acusado de homicidio por negligencia.
Erin Bruner, una brillante abogada acepta de mala gana hacerse cargo de su defensa. A medida que el juicio avanza,
el cinismo y el ateísmo de Erin se tambalean debido a la fe inquebrantable del Padre Moore y a los hechos, espeluznantes
e inexplicables, que rodean el caso.




INFORMACION

Titulo: The Exorcism of Emily Rose
Pais: USA
Año: 2005
Estudio: Lionsgate / Marv Films
Calificacion por edades: ATP
Géneros: Terror, Intriga
Dirección: Scott Derrickson
Guion: Scott Derrickson, Paul Harris Boardman
Música: Christopher Young
Fotografía: Tom Stern
Reparto: Jennifer Carpenter, Laura Linney, Tom Wilkinson, Colm Feore,
Campbell Scott, Shohreh Aghdashloo, Mary Beth Hurt, JR Bourne,



FICHA TÉCNICA

Resolución: 1080p 10bit
Codec de video: x265
Fuente: Blu-Ray
Formato: MKV
Duración: 117 Min.
Peso de la Pelicula: 2.71 GB
Audio: Español-Lat 5.1, Ingles USA 5.1
Subtitulos Vobsubs: Español Latino, Ingles USA, Aleman, Portugues, Chino, Indones.


MEDIAINFO

General
Unique ID : 214805738207171662427461851095451057740 (0xA19A14916BA18E7486CB9D8E5C083E4C)
Complete name : A:\REMREM\DESCARGAS REMREM\El Exorcismo de Emily Rose (2005) HEVC-1080p AC3-6ch*–*Google*Drive\El Exorcismo de Emily Rose (2005) HEVC-1080p AC3-6ch.mkv
Format : Matroska
Format version : Version 4 / Version 2
File size : 2.71 GiB
Duration : 2 h 1 min
Overall bit rate : 3 182 kb/s
Movie name : El Exorcismo de Emily Rose (2005) HEVC-1080p AC3-6ch
Encoded date : UTC 2018-03-21 21:58:17
Writing application : mkvmerge v9.0.1 ('Obstacles') 64bit
Writing library : libebml v1.3.3 + libmatroska v1.4.4

Video
ID : 1
Format : HEVC
Format/Info : High Efficiency Video Coding
Format profile : Main 10@L4@Main
Codec ID : V_MPEGH/ISO/HEVC
Duration : 2 h 1 min
Bit rate : 2 347 kb/s
Width : 1 920 pixels
Height : 800 pixels
Display aspect ratio : 2.40:1
Frame rate mode : Constant
Frame rate : 23.976 (24000/1001) FPS
Color space : YUV
Chroma subsampling : 4:2:0
Bit depth : 10 bits
Bits/(Pixel*Frame) : 0.064
Stream size : 2.00 GiB (74%)
Title : El Exorcismo de Emily Rose (2005) HEVC-1080p AC3-6ch
Writing library : x265 1.9+200-6098ba3e0cf16b11:[Windows][GCC 5.3.0][64 bit] 10bit
Encoding settings : wpp / ctu=64 / min-cu-size=8 / max-tu-size=32 / tu-intra-depth=1 / tu-inter-depth=1 / me=1 / subme=2 / merange=57 / no-rect / no-amp / max-merge=2 / temporal-mvp / no-early-skip / recursion-skip / rdpenalty=0 / no-tskip / no-tskip-fast / strong-intra-smoothing / no-lossless / no-cu-lossless / no-constrained-intra / no-fast-intra / open-gop / no-temporal-layers / interlace=0 / keyint=250 / min-keyint=23 / scenecut=40 / rc-lookahead=20 / lookahead-slices=5 / bframes=4 / bframe-bias=0 / b-adapt=2 / ref=3 / limit-refs=3 / no-limit-modes / weightp / no-weightb / aq-mode=1 / qg-size=32 / aq-strength=1.00 / cbqpoffs=0 / crqpoffs=0 / rd=3 / psy-rd=2.00 / rdoq-level=0 / psy-rdoq=0.00 / no-rd-refine / signhide / deblock=0:0 / sao / no-sao-non-deblock / b-pyramid / cutree / no-intra-refresh / rc=crf / crf=18.0 / qcomp=0.60 / qpmin=0 / qpmax=51 / qpstep=4 / ipratio=1.40 / pbratio=1.30
Default : Yes
Forced : No

Audio #1
ID : 2
Format : AC-3
Format/Info : Audio Coding 3
Codec ID : A_AC3
Duration : 2 h 1 min
Bit rate mode : Constant
Bit rate : 448 kb/s
Channel(s) : 6 channels
Channel positions : Front: L C R, Side: L R, LFE
Sampling rate : 48.0 kHz
Frame rate : 31.250 FPS (1536 SPF)
Bit depth : 16 bits
Compression mode : Lossy
Delay relative to video : 78 ms
Stream size : 390 MiB (14%)
Title : Español Latino
Language : Spanish
Service kind : Complete Main
Default : Yes
Forced : Yes

Audio #2
ID : 3
Format : AAC
Format/Info : Advanced Audio Codec
Format profile : LC
Codec ID : A_AAC-2
Duration : 2 h 1 min
Bit rate : 331 kb/s
Channel(s) : 6 channels
Channel positions : Front: L C R, Side: L R, LFE
Sampling rate : 48.0 kHz
Frame rate : 46.875 FPS (1024 SPF)
Compression mode : Lossy
Delay relative to video : 20 ms
Stream size : 288 MiB (10%)
Title : Ingles USA
Language : English
Default : No
Forced : No

Text #1
ID : 4
Format : VobSub
Muxing mode : zlib
Codec ID : S_VOBSUB
Codec ID/Info : Picture based subtitle format used on DVDs
Duration : 1 h 56 min
Bit rate : 6 053 b/s
Count of elements : 1371
Stream size : 5.06 MiB (0%)
Title : Español Latino
Language : Spanish
Default : No
Forced : No

Text #2
ID : 5
Format : VobSub
Muxing mode : zlib
Codec ID : S_VOBSUB
Codec ID/Info : Picture based subtitle format used on DVDs
Duration : 1 h 57 min
Bit rate : 10.5 kb/s
Count of elements : 1991
Stream size : 8.85 MiB (0%)
Title : Español (Con Comentarios)
Language : Spanish
Default : No
Forced : No

Text #3
ID : 6
Format : VobSub
Muxing mode : zlib
Codec ID : S_VOBSUB
Codec ID/Info : Picture based subtitle format used on DVDs
Duration : 1 h 56 min
Bit rate : 5 401 b/s
Count of elements : 1505
Stream size : 4.51 MiB (0%)
Title : Ingles USA
Language : English
Default : No
Forced : No

Text #4
ID : 7
Format : VobSub
Muxing mode : zlib
Codec ID : S_VOBSUB
Codec ID/Info : Picture based subtitle format used on DVDs
Duration : 2 h 0 min
Bit rate : 6 389 b/s
Count of elements : 1373
Stream size : 5.53 MiB (0%)
Title : Frances
Language : French
Default : No
Forced : No

Text #5
ID : 8
Format : VobSub
Muxing mode : zlib
Codec ID : S_VOBSUB
Codec ID/Info : Picture based subtitle format used on DVDs
Duration : 1 h 56 min
Bit rate : 6 969 b/s
Count of elements : 1357
Stream size : 5.82 MiB (0%)
Title : Aleman
Language : German
Default : No
Forced : No

Text #6
ID : 9
Format : VobSub
Muxing mode : zlib
Codec ID : S_VOBSUB
Codec ID/Info : Picture based subtitle format used on DVDs
Duration : 1 h 56 min
Bit rate : 6 418 b/s
Count of elements : 1383
Stream size : 5.36 MiB (0%)
Title : Portugues
Language : Portuguese
Default : No
Forced : No

Text #7
ID : 10
Format : VobSub
Muxing mode : zlib
Codec ID : S_VOBSUB
Codec ID/Info : Picture based subtitle format used on DVDs
Duration : 1 h 56 min
Bit rate : 7 083 b/s
Count of elements : 1372
Stream size : 5.92 MiB (0%)
Title : Chino
Language : Chinese
Default : No
Forced : No

Text #8
ID : 11
Format : VobSub
Muxing mode : zlib
Codec ID : S_VOBSUB
Codec ID/Info : Picture based subtitle format used on DVDs
Duration : 1 h 56 min
Bit rate : 6 246 b/s
Count of elements : 1371
Stream size : 5.22 MiB (0%)
Title : Indonesio
Language : Indonesian
Default : No
Forced : No

Menu
00:00:00.000 : en:Chapter 01
00:08:16.162 : en:Chapter 02
00:16:20.312 : en:Chapter 03
00:24:53.158 : en:Chapter 04
00:35:19.867 : en:Chapter 05
00:40:52.950 : en:Chapter 06
00:47:59.501 : en:Chapter 07
00:55:04.843 : en:Chapter 08
01:02:27.869 : en:Chapter 09
01:11:08.889 : en:Chapter 10
01:20:55.684 : en:Chapter 11
01:25:22.826 : en:Chapter 12
01:36:20.024 : en:Chapter 13
01:43:45.302 : en:Chapter 14
01:50:38.715 : en:Chapter 15
01:53:23.671 : en:Chapter 16

TRAILER



CAPTURAS














Para ver este contenido oculto, debes dar click en una de las siguientes reacciones: Like Like, Love Love, Haha Haha, Wow Wow, Sad Sad, Angry Angry

Para ver este contenido oculto, debes dar click en una de las siguientes reacciones: Like Like, Love Love, Haha Haha, Wow Wow, Sad Sad, Angry Angry

Enlaces de Mega y Google Drive solo disponibles para Miembros VIP

Compra tu Membresía VIP y apoya a Club-HD!

ATENCIÓN! Tenemos TODO el material de Club-HD disponible por Mega y Google Drive, enlaces 100% activos y online hasta la fecha

Llévate tus cuentas Mega PRO II gratis con tu membresía VIP!
Todos los posts vivos con links de Mega y Google Drive.
Todo el material de Club-HD desbloqueado y sin publicidad.

Click Aquí para más información.

Enlaces de Mega y Google Drive solo disponibles para Miembros VIP

Compra tu Membresía VIP y apoya a Club-HD!

ATENCIÓN! Tenemos TODO el material de Club-HD disponible por Mega y Google Drive, enlaces 100% activos y online hasta la fecha

Llévate tus cuentas Mega PRO II gratis con tu membresía VIP!
Todos los posts vivos con links de Mega y Google Drive.
Todo el material de Club-HD desbloqueado y sin publicidad.

Click Aquí para más información.
CONTRASEÑA

 
Última edición:

Usuarios Que Están Viendo Este Tema (Total: 1, Miembros: 0, Invitados: 1)

Arriba