The Expendables 2 (2012) m-720p Dual Latino-Inglés [Subt. Esp-Ing] (Acción)

Maestro Revolver

Well-known member
Miembro del Staff
Administrador
Registro
9 Ago 2012
Mensajes
3.569
Reacciones
59.346
Puntos
113

Reputation:









TÍTULO ORIGINAL: The Expendables 2
AÑO: 2012
DURACIÓN: 102 min.
PAÍS: USA
DIRECTOR: Simon West
GUIÓN: Richard Wenk, Sylvester Stallone (Historia: Ken Kaufman, David Agosto, Richard Wenk)
REPARTO: Sylvester Stallone, Jason Statham, Dolph Lundgren, Terry Crews, Randy Couture, Yu Nan, Jean Claude Van Damme, Bruce Willis, Arnold Schwarzenegger, Chuck Norris, Jet Li, Liam Hemsworth, Scott Adkins, Charisma Carpenter, Amanda Ooms
PRODUCTORA: Millennium Films / Nu Image Films
GÉNERO: Acción | Secuela
http://www.imdb.com/title/tt1764651/





Los Mercenarios han vuelto, y esta vez es personal... Barney Ross (Sylvester Stallone), Lee Christmas (Jason Statham), Yin Yang (Jet Li), Gunner Jensen (Dolph Lundgren), Toll Road (Randy Couture) y Hale Caesar (Terry Crews), con su miembro más reciente, Billy (Liam Hemsworth), se vuelven a reunir cuando Mr. Church (Bruce Willis) les encarga un trabajo en apariencia sencillo y muy lucrativo. Sin embargo, las cosas se tuercen cuando un peligroso terrorista llamado Villain (Jean-Claude Van Damme) les tiende una emboscada, lo que les impulsa a buscar venganza. Así es como van sembrando a su paso la destrucción y el caos entre sus enemigos hasta que se encuentran con una amenaza inesperada: cinco toneladas de plutonio apto para uso militar, una cantidad más que suficiente para cambiar el equilibrio de poder en el mundo.
























La pelicula NO tiene ninguna marca... solo colocamos el nombre de esta web en las capturas






Código:
General
Format                           : Matroska
Format version                   : Version 2
File size                        : 2.62 GiB
Duration                         : 1h 42mn
Overall bit rate                 : 3 650 Kbps
Movie name                       : www.club-hd.com
Encoded date                     : UTC 2012-11-10 02:33:34
Writing application              : mkvmerge v5.7.0 ('The Whirlwind') built on Jul  8 2012 20:08:51
Writing library                  : libebml v1.2.3 + libmatroska v1.3.0

Video
ID                               : 1
Format                           : AVC
Format/Info                      : Advanced Video Codec
Format profile                   : High@L4.1
Format settings, CABAC           : Yes
Format settings, ReFrames        : 8 frames
Codec ID                         : V_MPEG4/ISO/AVC
Duration                         : 1h 42mn
Bit rate                         : 2 760 Kbps
Width                            : 1 280 pixels
Height                           : 534 pixels
Display aspect ratio             : 2.40:1
Frame rate                       : 23.976 fps
Color space                      : YUV
Chroma subsampling               : 4:2:0
Bit depth                        : 8 bits
Scan type                        : Progressive
Bits/(Pixel*Frame)               : 0.168
Stream size                      : 1.92 GiB (73%)
Title                            : www.club-hd.com
Writing library                  : x264 core 128 r2216 198a7ea
Language                         : English
Default                          : Yes
Forced                           : No

Audio #1
ID                               : 2
Format                           : AC-3
Format/Info                      : Audio Coding 3
Mode extension                   : CM (complete main)
Codec ID                         : A_AC3
Duration                         : 1h 42mn
Bit rate mode                    : Constant
Bit rate                         : 448 Kbps
Channel(s)                       : 6 channels
Channel positions                : Front: L C R, Side: L R, LFE
Sampling rate                    : 48.0 KHz
Bit depth                        : 16 bits
Compression mode                 : Lossy
Delay relative to video          : 23s 300ms
Stream size                      : 329 MiB (12%)
Title                            : www.club-hd.com  >>  Latino
Language                         : Spanish
Default                          : Yes
Forced                           : No

Audio #2
ID                               : 3
Format                           : AC-3
Format/Info                      : Audio Coding 3
Mode extension                   : CM (complete main)
Codec ID                         : A_AC3
Duration                         : 1h 42mn
Bit rate mode                    : Constant
Bit rate                         : 448 Kbps
Channel(s)                       : 6 channels
Channel positions                : Front: L C R, Side: L R, LFE
Sampling rate                    : 48.0 KHz
Bit depth                        : 16 bits
Compression mode                 : Lossy
Stream size                      : 329 MiB (12%)
Title                            : www.club-hd.com  >>  Inglés
Language                         : English
Default                          : No
Forced                           : No

Text #1
ID                               : 4
Format                           : UTF-8
Codec ID                         : S_TEXT/UTF8
Codec ID/Info                    : UTF-8 Plain Text
Language                         : Spanish
Default                          : No
Forced                           : No

Text #2
ID                               : 5
Format                           : UTF-8
Codec ID                         : S_TEXT/UTF8
Codec ID/Info                    : UTF-8 Plain Text
Language                         : English
Default                          : No
Forced                           : No

Menu
00:00:00.000                     : en:Chapter 1
00:10:04.229                     : en:Chapter 2
00:18:06.210                     : en:Chapter 3
00:24:55.661                     : en:Chapter 4
00:28:44.014                     : en:Chapter 5
00:31:32.641                     : en:Chapter 6
00:39:11.683                     : en:Chapter 7
00:48:54.390                     : en:Chapter 8
00:54:35.397                     : en:Chapter 9
00:59:25.103                     : en:Chapter 10
01:04:30.909                     : en:Chapter 11
01:07:15.239                     : en:Chapter 12
01:13:43.252                     : en:Chapter 13
01:20:18.522                     : en:Chapter 14
01:28:27.844                     : en:Chapter 15
01:31:25.271                     : en:Chapter 16









Enlaces de Mega y Fireload solo disponibles para Miembros VIP

Compra tu Membresía VIP y apoya a Club-HD!

ATENCIÓN! Tenemos TODO el material de Club-HD disponible por Mega y Fireload, enlaces 100% activos y online hasta la fecha

Llévate tus cuentas Mega PRO II gratis con tu membresía VIP!
Todos los posts vivos con links de Mega y Fireload.
Todo el material de Club-HD desbloqueado y sin publicidad.

Click Aquí para más información.




Enlaces de Mega y Fireload solo disponibles para Miembros VIP

Compra tu Membresía VIP y apoya a Club-HD!

ATENCIÓN! Tenemos TODO el material de Club-HD disponible por Mega y Fireload, enlaces 100% activos y online hasta la fecha

Llévate tus cuentas Mega PRO II gratis con tu membresía VIP!
Todos los posts vivos con links de Mega y Fireload.
Todo el material de Club-HD desbloqueado y sin publicidad.

Click Aquí para más información.


Enlaces de Mega y Fireload solo disponibles para Miembros VIP

Compra tu Membresía VIP y apoya a Club-HD!

ATENCIÓN! Tenemos TODO el material de Club-HD disponible por Mega y Fireload, enlaces 100% activos y online hasta la fecha

Llévate tus cuentas Mega PRO II gratis con tu membresía VIP!
Todos los posts vivos con links de Mega y Fireload.
Todo el material de Club-HD desbloqueado y sin publicidad.

Click Aquí para más información.

Para ver este contenido oculto, debes dar click en una de las siguientes reacciones : Like Like, Love Love, Haha Haha, Wow Wow, Sad Sad, Angry Angry

Para ver este contenido oculto, debes dar click en una de las siguientes reacciones : Like Like, Love Love, Haha Haha, Wow Wow, Sad Sad, Angry Angry
 
Última edición:

Master_jfl

New member
Registro
27 Ago 2012
Mensajes
275
Reacciones
27
Puntos
0
Edad
33

Reputation:

gracias pero puedes subir solo el audio latino
 

Usuarios Que Están Viendo Este Tema (Total: 1, Miembros: 0, Invitados: 1)

Arriba