The Hobbit: The Battle of the Five Armies Extended (2014) 4k HDR Ligero BrRip Dual Latino-Inglés [Subt.] (Fantasia, drama)

RUEDAS

Well-known member
Miembro del Staff
Súper Moderador
Uploader
Registro
1 Sep 2012
Mensajes
703
Reacciones
1.738
Puntos
93
Edad
41

Reputation:







Después de haber recuperado el reino del Dragón Smaug en la montaña, la Compañía ha desencadenado, sin querer, una potencia maligna. Un Smaug enfurecido vuela hacia la Ciudad del Lago para acabar con cualquier resto de vida. Obsesionado con las enormes riquezas en su poder, el rey enano Thorin se vuelve codicioso, mientras Bilbo intenta hacerle entrar en razón haciendo algo desesperado y peligroso. Pero hay aún mayores peligros por delante. Sin la ayuda del mago Gandalf, su gran enemigo Sauron ha enviado legiones de orcos hacia la Montaña Solitaria en un ataque épico. Cuando la oscuridad se cierna sobre ellos, las razas de los Enanos, Elfos y Hombres deberán decidir si unirse o ser destruidos. Bilbo se encontrará así en la batalla épica de los Cinco Ejércitos, donde el futuro de la Tierra Media está en juego.






Código:
Format                                   : Matroska
Format version                           : Version 4
File size                                : 7.46 GiB
Duration                                 : 2 h 44 min
Overall bit rate                         : 6 515 kb/s
Encoded date                             : UTC 2021-11-21 17:09:18
Writing application                      : mkvmerge v49.0.0 ('Sick Of Losing Soulmates') 64-bit
Writing library                          : libebml v1.4.0 + libmatroska v1.6.1

Video
ID                                       : 1
Format                                   : HEVC
Format/Info                              : High Efficiency Video Coding
Format profile                           : Main 10@L5@Main
HDR format                               : SMPTE ST 2086, HDR10 compatible
Codec ID                                 : V_MPEGH/ISO/HEVC
Duration                                 : 2 h 44 min
Bit rate                                 : 5 762 kb/s
Width                                    : 3 840 pixels
Height                                   : 1 608 pixels
Display aspect ratio                     : 2.40:1
Frame rate mode                          : Constant
Frame rate                               : 23.976 (24000/1001) FPS
Color space                              : YUV
Chroma subsampling                       : 4:2:0 (Type 2)
Bit depth                                : 10 bits
Bits/(Pixel*Frame)                       : 0.039
Stream size                              : 6.60 GiB (88%)
Default                                  : Yes
Forced                                   : No
Color range                              : Limited
Color primaries                          : BT.2020
Transfer characteristics                 : PQ
Matrix coefficients                      : BT.2020 non-constant
Mastering display color primaries        : Display P3
Mastering display luminance              : min: 0.0050 cd/m2, max: 4000 cd/m2
Maximum Content Light Level              : 1163 cd/m2
Maximum Frame-Average Light Level        : 162 cd/m2

Audio #1
ID                                       : 2
Format                                   : AAC LC SBR
Format/Info                              : Advanced Audio Codec Low Complexity with Spectral Band Replication
Commercial name                          : HE-AAC
Format settings                          : Explicit
Codec ID                                 : A_AAC-2
Duration                                 : 2 h 44 min
Bit rate                                 : 303 kb/s
Channel(s)                               : 8 channels
Channel layout                           : C L R Ls Rs Lw Rw LFE
Sampling rate                            : 48.0 kHz
Frame rate                               : 23.438 FPS (2048 SPF)
Compression mode                         : Lossy
Stream size                              : 356 MiB (5%)
Language                                 : English
Default                                  : Yes
Forced                                   : No

Audio #2
ID                                       : 5
Format                                   : AC-3
Format/Info                              : Audio Coding 3
Commercial name                          : Dolby Digital
Codec ID                                 : A_AC3
Duration                                 : 2 h 44 min
Bit rate mode                            : Constant
Bit rate                                 : 448 kb/s
Channel(s)                               : 6 channels
Channel layout                           : L R C LFE Ls Rs
Sampling rate                            : 48.0 kHz
Frame rate                               : 31.250 FPS (1536 SPF)
Compression mode                         : Lossy
Delay relative to video                  : 24 ms
Stream size                              : 526 MiB (7%)
Language                                 : Spanish
Service kind                             : Complete Main
Default                                  : No
Forced                                   : No

Text #1
ID                                       : 3
Format                                   : UTF-8
Codec ID                                 : S_TEXT/UTF8
Codec ID/Info                            : UTF-8 Plain Text
Duration                                 : 2 h 43 min
Bit rate                                 : 2 b/s
Count of elements                        : 87
Stream size                              : 2.55 KiB (0%)
Language                                 : Spanish
Default                                  : Yes
Forced                                   : Yes

Text #2
ID                                       : 4
Format                                   : UTF-8
Codec ID                                 : S_TEXT/UTF8
Codec ID/Info                            : UTF-8 Plain Text
Duration                                 : 2 h 34 min
Bit rate                                 : 33 b/s
Count of elements                        : 1575
Stream size                              : 38.2 KiB (0%)
Language                                 : Spanish
Default                                  : No
Forced                                   : No

Menu
00:00:00.000                             : en:Chapter 01
00:05:12.353                             : en:Chapter 02
00:12:47.016                             : en:Chapter 03
00:13:18.881                             : en:Chapter 04
00:18:57.386                             : en:Chapter 05
00:23:41.837                             : en:Chapter 06
00:24:55.827                             : en:Chapter 07
00:26:04.354                             : en:Chapter 08
00:27:32.984                             : en:Chapter 09
00:35:45.643                             : en:Chapter 10
00:36:41.240                             : en:Chapter 11
00:40:41.605                             : en:Chapter 12
00:42:01.101                             : en:Chapter 13
00:43:11.338                             : en:Chapter 14
00:46:15.856                             : en:Chapter 15
00:51:27.417                             : en:Chapter 16
00:54:57.794                             : en:Chapter 17
00:56:14.788                             : en:Chapter 18
00:58:30.924                             : en:Chapter 19
01:00:26.914                             : en:Chapter 20
01:02:43.551                             : en:Chapter 21
01:06:10.007                             : en:Chapter 22
01:12:23.047                             : en:Chapter 23
01:17:22.387                             : en:Chapter 24
01:20:36.289                             : en:Chapter 25
01:24:56.966                             : en:Chapter 26
01:28:41.524                             : en:Chapter 27
01:30:51.946                             : en:Chapter 28
01:33:02.118                             : en:Chapter 29
01:35:12.790                             : en:Chapter 30
01:38:32.448                             : en:Chapter 31
01:39:42.643                             : en:Chapter 32
01:41:00.387                             : en:Chapter 33
01:45:03.463                             : en:Chapter 34
01:47:13.593                             : en:Chapter 35
01:49:05.247                             : en:Chapter 36
01:50:02.971                             : en:Chapter 37
01:52:59.189                             : en:Chapter 38
01:53:51.241                             : en:Chapter 39
01:57:14.902                             : en:Chapter 40
02:05:38.531                             : en:Chapter 41
02:12:07.002                             : en:Chapter 42
02:15:25.826                             : en:Chapter 43
02:18:32.470                             : en:Chapter 44
02:20:07.357                             : en:Chapter 45
02:22:26.955                             : en:Chapter 46
02:26:11.179                             : en:Chapter 47
02:30:54.420                             : en:Chapter 48















CONTRASEÑA
www.club-hd.com








Todos los links son Intercambiables!







Enlaces de Mega y Fireload solo disponibles para Miembros VIP

Compra tu Membresía VIP y apoya a Club-HD!

ATENCIÓN! Tenemos TODO el material de Club-HD disponible por Mega y Fireload, enlaces 100% activos y online hasta la fecha

Llévate tus cuentas Mega PRO II gratis con tu membresía VIP!
Todos los posts vivos con links de Mega y Fireload.
Todo el material de Club-HD desbloqueado y sin publicidad.

Click Aquí para más información.






Enlaces de Mega y Fireload solo disponibles para Miembros VIP

Compra tu Membresía VIP y apoya a Club-HD!

ATENCIÓN! Tenemos TODO el material de Club-HD disponible por Mega y Fireload, enlaces 100% activos y online hasta la fecha

Llévate tus cuentas Mega PRO II gratis con tu membresía VIP!
Todos los posts vivos con links de Mega y Fireload.
Todo el material de Club-HD desbloqueado y sin publicidad.

Click Aquí para más información.




Para ver este contenido oculto, debes dar click en una de las siguientes reacciones : Like Like, Love Love, Haha Haha, Wow Wow, Sad Sad, Angry Angry


Para ver este contenido oculto, debes dar click en una de las siguientes reacciones : Like Like, Love Love, Haha Haha, Wow Wow, Sad Sad, Angry Angry
 

RUEDAS

Well-known member
Miembro del Staff
Súper Moderador
Uploader
Registro
1 Sep 2012
Mensajes
703
Reacciones
1.738
Puntos
93
Edad
41

Reputation:

Disfrutalo amigo
 

cripp

Well-known member
Registro
27 Ago 2012
Mensajes
9.683
Reacciones
845
Puntos
113

Reputation:

Gracias por compartir
 

Usuarios Que Están Viendo Este Tema (Total: 1, Miembros: 0, Invitados: 1)

Arriba