The Hurt Locker (2008) m-1080p Dual Latino-Inglés [Subt. Esp-Ing] (Bélico. Acción)

Maestro Revolver

Well-known member
Miembro del Staff
Administrador
Registro
9 Ago 2012
Mensajes
3.569
Reacciones
59.350
Puntos
113

Reputation:









TÍTULO ORIGINAL: The Hurt Locker
AÑO: 2008
DURACIÓN: 118 min.
PAÍS: USA
DIRECTOR: Kathryn Bigelow
GUIÓN: Mark Boal
REPARTO: Jeremy Renner, Anthony Mackie, Brian Geraghty, Guy Pearce, Ralph Fiennes, David Morse, Christian Camargo, Evangeline Lilly
PRODUCTORA: Summit Entertainment / First Light Production / Kingsgate Films
GÉNERO: Bélico. Acción. Thriller. Drama | Guerra de Iraq. Cine independiente USA
: http://www.imdb.com/title/tt0887912/

PREMIOS: 2009: 6 Oscars, incluyendo mejor película y dirección. 9 nominaciones.
2009: 3 nominaciones al Globos de Oro: Mejor película drama, director, guión.
2009: 6 Premios BAFTA, incluyendo película, director y guión. 8 nominaciones.
2009: Critics Choice Awards: Mejor película.
2009: Asociación de Críticos de Los Angeles: Mejor película y director.
2009: American Film Institute (AFI): Top 10 - Mejores películas del año
2008: Festival de Venecia: Premio SIGNIS. Nominada al León de Oro
2009: 2 Critics' Choice Awards: Mejor película y director. 8 nominaciones






En Irak, una unidad de élite de artificieros norteamericanos actúa en una caótica ciudad donde cualquier persona puede ser un enemigo y cualquier objeto, una bomba. El jefe del grupo, el sargento Thompson, muere en el transcurso de una misión y es sustituido por el impredecible y temerario sargento William James (Jeremy Renner). Cuando falta poco para que la brigada sea relevada, el imprudente comportamiento de James hará que dos de sus subordinados, se planteen seriamente el riesgo que corren.
























La pelicula NO tiene ninguna marca... solo colocamos el nombre de esta web en las capturas






Código:
General
Format                                   : Matroska
Format version                           : Version 2
File size                                : 5.27 GiB
Duration                                 : 2h 10mn
Overall bit rate                         : 5 773 Kbps
Movie name                               : www.club-hd.com
Encoded date                             : UTC 2013-03-11 04:07:48
Writing application                      : mkvmerge v5.7.0 ('The Whirlwind') built on Jul  8 2012 20:08:51
Writing library                          : libebml v1.2.3 + libmatroska v1.3.0

Video
ID                                       : 1
Format                                   : AVC
Format/Info                              : Advanced Video Codec
Format profile                           : Main@L4.0
Format settings, CABAC                   : Yes
Format settings, ReFrames                : 4 frames
Codec ID                                 : V_MPEG4/ISO/AVC
Duration                                 : 2h 10mn
Bit rate                                 : 4 378 Kbps
Nominal bit rate                         : 4 600 Kbps
Width                                    : 1 920 pixels
Height                                   : 1 080 pixels
Display aspect ratio                     : 16:9
Frame rate mode                          : Constant
Frame rate                               : 23.976 fps
Color space                              : YUV
Chroma subsampling                       : 4:2:0
Bit depth                                : 8 bits
Scan type                                : Progressive
Bits/(Pixel*Frame)                       : 0.088
Stream size                              : 4.00 GiB (76%)
Title                                    : www.club-hd.com
Writing library                          : x264 core 112
Language                                 : English
Default                                  : Yes
Forced                                   : No
Color primaries                          : BT.709
Transfer characteristics                 : BT.709
Matrix coefficients                      : BT.709

Audio #1
ID                                       : 2
Format                                   : AC-3
Format/Info                              : Audio Coding 3
Mode extension                           : CM (complete main)
Format settings, Endianness              : Big
Codec ID                                 : A_AC3
Duration                                 : 2h 10mn
Bit rate mode                            : Constant
Bit rate                                 : 640 Kbps
Channel(s)                               : 6 channels
Channel positions                        : Front: L C R, Side: L R, LFE
Sampling rate                            : 48.0 KHz
Bit depth                                : 16 bits
Compression mode                         : Lossy
Stream size                              : 598 MiB (11%)
Title                                    : www.club-hd.com  >>  Latino
Language                                 : Spanish
Default                                  : Yes
Forced                                   : No

Audio #2
ID                                       : 3
Format                                   : AC-3
Format/Info                              : Audio Coding 3
Mode extension                           : CM (complete main)
Format settings, Endianness              : Big
Codec ID                                 : A_AC3
Duration                                 : 2h 10mn
Bit rate mode                            : Constant
Bit rate                                 : 640 Kbps
Channel(s)                               : 6 channels
Channel positions                        : Front: L C R, Side: L R, LFE
Sampling rate                            : 48.0 KHz
Bit depth                                : 16 bits
Compression mode                         : Lossy
Stream size                              : 598 MiB (11%)
Title                                    : www.club-hd.com  >>  Inglés
Language                                 : English
Default                                  : No
Forced                                   : No

Text #1
ID                                       : 4
Format                                   : UTF-8
Codec ID                                 : S_TEXT/UTF8
Codec ID/Info                            : UTF-8 Plain Text
Language                                 : Spanish
Default                                  : No
Forced                                   : No

Text #2
ID                                       : 5
Format                                   : UTF-8
Codec ID                                 : S_TEXT/UTF8
Codec ID/Info                            : UTF-8 Plain Text
Language                                 : English
Default                                  : No
Forced                                   : No

Menu
00:00:00.000                             : en:Chapter 1
00:10:00.099                             : en:Chapter 2
00:16:33.325                             : en:Chapter 3
00:22:07.367                             : en:Chapter 4
00:27:23.642                             : en:Chapter 5
00:34:09.756                             : en:Chapter 6
00:43:41.827                             : en:Chapter 7
00:50:43.206                             : en:Chapter 8
01:03:53.162                             : en:Chapter 9
01:09:03.347                             : en:Chapter 10
01:16:21.451                             : en:Chapter 11
01:22:40.580                             : en:Chapter 12
01:29:47.548                             : en:Chapter 13
01:36:52.431                             : en:Chapter 14
01:42:51.373                             : en:Chapter 15
01:50:14.899                             : en:Chapter 16
01:57:26.956                             : en:Chapter 17
02:04:41.932                             : en:Chapter 18










Enlaces de Mega y Fireload solo disponibles para Miembros VIP

Compra tu Membresía VIP y apoya a Club-HD!

ATENCIÓN! Tenemos TODO el material de Club-HD disponible por Mega y Fireload, enlaces 100% activos y online hasta la fecha

Llévate tus cuentas Mega PRO II gratis con tu membresía VIP!
Todos los posts vivos con links de Mega y Fireload.
Todo el material de Club-HD desbloqueado y sin publicidad.

Click Aquí para más información.




Enlaces de Mega y Fireload solo disponibles para Miembros VIP

Compra tu Membresía VIP y apoya a Club-HD!

ATENCIÓN! Tenemos TODO el material de Club-HD disponible por Mega y Fireload, enlaces 100% activos y online hasta la fecha

Llévate tus cuentas Mega PRO II gratis con tu membresía VIP!
Todos los posts vivos con links de Mega y Fireload.
Todo el material de Club-HD desbloqueado y sin publicidad.

Click Aquí para más información.



Para ver este contenido oculto, debes dar click en una de las siguientes reacciones : Like Like, Love Love, Haha Haha, Wow Wow, Sad Sad, Angry Angry

 
Última edición:

zacygal

Well-known member
Registro
3 Sep 2012
Mensajes
1.515
Reacciones
1.536
Puntos
113
Edad
49

Reputation:

Muy buena película ...
 

Leo-Peru

Well-known member
Registro
27 Ago 2012
Mensajes
1.489
Reacciones
564
Puntos
113
Ubicación
Lima
Sitio web
www.facebook.com

Reputation:

:dplgar: Gracias esta pelicula es buena como para volverlo a ver y tenerlo en la colección Desc_g_
 

Ezze

Well-known member
Miembro del Staff
Súper Moderador
Registro
28 Ago 2012
Mensajes
1.663
Reacciones
1.790
Puntos
113
Ubicación
En la Torre de Observación

Reputation:

Excelente película :dplgar:. Me la llevo para la colección :D:D. Muchas gracias Revolver por la movie xD. Saludos
 

Mate78

Ladron de mi cerebro
Miembro del Staff
Súper Moderador
Registro
27 Ago 2012
Mensajes
1.235
Reacciones
918
Puntos
113

Reputation:

Mi querido hermanito me comento los otros dias ,¡¡¡¡¡ no puede ser que no tengas esa pelicula !!!!!! , ahora gracias a ti Bestia le puedo tapar la boca S_T1S_T1S_T1 gracias gracias gracias R21.....
 

gregper

New member
Registro
28 Ago 2012
Mensajes
406
Reacciones
83
Puntos
0
Edad
38
Ubicación
Venezuela, Estado Zulia

Reputation:

GRacias por compartir esta excelente película, vale la pena tenerla en la colección!... Sigan así... Saludos y Exitos! Tb_up3
 

sunker-123

New member
Registro
27 Ago 2012
Mensajes
2.433
Reacciones
200
Puntos
0
Edad
30

Reputation:

Muchas Gracias R21, me la llevo, eres el mejor...:dplgar:
 

DoomsDay Elite

Well-known member
Registro
5 Sep 2012
Mensajes
1.225
Reacciones
1.101
Puntos
113

Reputation:

una super película con una super producción que por supuesto y encantadamente voy a descargar y mas en 1080p gracias viejo porque cada día me sorprenden mas
 

Usuarios Que Están Viendo Este Tema (Total: 1, Miembros: 0, Invitados: 1)

Arriba