The Illusionist (2006) 720p BDRip Dual Latino-Inglés [Subt. Esp] (Intriga. Drama)

Maestro Revolver

Well-known member
Miembro del Staff
Administrador
Registro
9 Ago 2012
Mensajes
3.569
Reacciones
59.350
Puntos
113

Reputation:









TÍTULO ORIGINAL: The Illusionist
AÑO: 2006
DURACIÓN: 110 min.
PAÍS: USA
DIRECTOR: Neil Burger
GUIÓN: Neil Burger (Historia: Steven Millhauser)
REPARTO: Edward Norton, Paul Giamatti, Jessica Biel, Rufus Sewell, Eddie Marsan, Jake Wood, Tom Fisher, Aaron Johnson, Eleanor Tomlinson
PRODUCTORA: Yari Film Group / Bob Yari Productions / Contagious Entertainment / Michael London Productions / Stillking Films
GÉNERO: Intriga. Drama | Drama de época. Magia. Años 1900 (circa)
: http://www.imdb.com/title/tt0443543/

PREMIOS: 2006: Nominada al Oscar: Mejor fotografía
2006: Critics' Choice Awards: Mejor compositor (Phillip Glass)
2006: National Board of Review (NBR): Top películas independientes del año






En la Viena de 1900, el misterioso Eisenheim (Edward Norton) cautiva al público con sus espectáculos de magia e ilusionismo. Sus poderes sobrenaturales llegan a oídos del príncipe heredero Leopold (Rufus Sewell), un hombre escéptico que acude al espectáculo acompañado de su prometida, la bella y sofisticada Sophie (Jessica Biel). Sospechando un fraude por parte de Eisenheim, el príncipe encarga al perspicaz inspector de policía Uhl (Paul Giamatti) que lo vigile de cerca.
























La pelicula NO tiene ninguna marca... solo colocamos el nombre de esta web en las capturas






Código:
General
Format                                   : Matroska
Format version                           : Version 2
File size                                : 4.79 GiB
Duration                                 : 1h 48mn
Overall bit rate                         : 6 290 Kbps
Movie name                               : www.club-hd.com
Encoded date                             : UTC 2013-04-02 00:20:03
Writing application                      : mkvmerge v5.7.0 ('The Whirlwind') built on Jul  8 2012 20:08:51
Writing library                          : libebml v1.2.3 + libmatroska v1.3.0

Video
ID                                       : 1
Format                                   : AVC
Format/Info                              : Advanced Video Codec
Format profile                           : High@L4.1
Format settings, CABAC                   : Yes
Format settings, ReFrames                : 8 frames
Format settings, GOP                     : N=1
Codec ID                                 : V_MPEG4/ISO/AVC
Duration                                 : 1h 48mn
Bit rate                                 : 5 648 Kbps
Width                                    : 1 280 pixels
Height                                   : 694 pixels
Display aspect ratio                     : 1.85:1
Frame rate mode                          : Constant
Frame rate                               : 23.976 fps
Color space                              : YUV
Chroma subsampling                       : 4:2:0
Bit depth                                : 8 bits
Scan type                                : Progressive
Bits/(Pixel*Frame)                       : 0.265
Stream size                              : 4.20 GiB (88%)
Title                                    : www.club-hd.com
Writing library                          : x264 core 68 r1183M f21daff
Language                                 : English
Default                                  : Yes
Forced                                   : No

Audio #1
ID                                       : 2
Format                                   : AC-3
Format/Info                              : Audio Coding 3
Mode extension                           : CM (complete main)
Format settings, Endianness              : Big
Codec ID                                 : A_AC3
Duration                                 : 1h 48mn
Bit rate mode                            : Constant
Bit rate                                 : 192 Kbps
Channel(s)                               : 2 channels
Channel positions                        : Front: L R
Sampling rate                            : 48.0 KHz
Bit depth                                : 16 bits
Compression mode                         : Lossy
Stream size                              : 150 MiB (3%)
Title                                    : www.club-hd.com  >>  Latino
Language                                 : Spanish
Default                                  : Yes
Forced                                   : No

Audio #2
ID                                       : 3
Format                                   : AC-3
Format/Info                              : Audio Coding 3
Mode extension                           : CM (complete main)
Format settings, Endianness              : Big
Codec ID                                 : A_AC3
Duration                                 : 1h 48mn
Bit rate mode                            : Constant
Bit rate                                 : 448 Kbps
Channel(s)                               : 6 channels
Channel positions                        : Front: L C R, Side: L R, LFE
Sampling rate                            : 48.0 KHz
Bit depth                                : 16 bits
Compression mode                         : Lossy
Stream size                              : 349 MiB (7%)
Title                                    : www.club-hd.com  >>  Inglés
Language                                 : English
Default                                  : No
Forced                                   : No

Text
ID                                       : 4
Format                                   : UTF-8
Codec ID                                 : S_TEXT/UTF8
Codec ID/Info                            : UTF-8 Plain Text
Language                                 : Spanish
Default                                  : No
Forced                                   : No








Enlaces de Mega y Fireload solo disponibles para Miembros VIP

Compra tu Membresía VIP y apoya a Club-HD!

ATENCIÓN! Tenemos TODO el material de Club-HD disponible por Mega y Fireload, enlaces 100% activos y online hasta la fecha

Llévate tus cuentas Mega PRO II gratis con tu membresía VIP!
Todos los posts vivos con links de Mega y Fireload.
Todo el material de Club-HD desbloqueado y sin publicidad.

Click Aquí para más información.




Enlaces de Mega y Fireload solo disponibles para Miembros VIP

Compra tu Membresía VIP y apoya a Club-HD!

ATENCIÓN! Tenemos TODO el material de Club-HD disponible por Mega y Fireload, enlaces 100% activos y online hasta la fecha

Llévate tus cuentas Mega PRO II gratis con tu membresía VIP!
Todos los posts vivos con links de Mega y Fireload.
Todo el material de Club-HD desbloqueado y sin publicidad.

Click Aquí para más información.



Para ver este contenido oculto, debes dar click en una de las siguientes reacciones : Like Like, Love Love, Haha Haha, Wow Wow, Sad Sad, Angry Angry



Para ver este contenido oculto, debes dar click en una de las siguientes reacciones : Like Like, Love Love, Haha Haha, Wow Wow, Sad Sad, Angry Angry

 
Última edición por un moderador:

Ezze

Well-known member
Miembro del Staff
Súper Moderador
Registro
28 Ago 2012
Mensajes
1.663
Reacciones
1.790
Puntos
113
Ubicación
En la Torre de Observación

Reputation:

Como me gusta mucho esta película... También me llevo esta versión.... por goloso xD Muchas gracias Revolver!!! :dplgar: Te merecés un monumento!! Tb_up3 Saludos bye
 

Rob Stark

New member
Registro
28 Ago 2012
Mensajes
243
Reacciones
29
Puntos
0
Edad
31

Reputation:

Al parecer ya estan poniéndole as brillantes a las películas xD, Gracias, como siempre los mejores
 

sunker-123

New member
Registro
27 Ago 2012
Mensajes
2.433
Reacciones
200
Puntos
0
Edad
30

Reputation:

Muchas Gracias R21, me la llevo, eres el mejor...:aplausos:
 

zacygal

Well-known member
Registro
3 Sep 2012
Mensajes
1.515
Reacciones
1.536
Puntos
113
Edad
49

Reputation:

desearía bajarla en 1080, pero son tantas ... Grax excelente película...
 

Mate78

Ladron de mi cerebro
Miembro del Staff
Súper Moderador
Registro
27 Ago 2012
Mensajes
1.235
Reacciones
918
Puntos
113

Reputation:

Tremendo , gracias Bestia !!!!:aplausos::LXR::LXR:
 

edward1080

Well-known member
Registro
23 Nov 2012
Mensajes
1.013
Reacciones
137
Puntos
63
Edad
34

Reputation:

Grande grande, versiones para todos los gustos hay aquí de esta excelente película!! muchas Gracias Master Revolver!! Tb_up3
 

Usuarios Que Están Viendo Este Tema (Total: 1, Miembros: 0, Invitados: 1)

Arriba