The Impossible (2012) m-720p Dual Latino-Inglés [Subt. Esp-Ing] (Drama)

Maestro Revolver

Well-known member
Miembro del Staff
Administrador
Registro
9 Ago 2012
Mensajes
3.569
Reacciones
59.361
Puntos
113

Reputation:









TÍTULO ORIGINAL: The Impossible
AÑO: 2012
DURACIÓN: 107 min.
PAÍS: España
DIRECTOR: Juan Antonio Bayona
GUIÓN: Sergio G. Sánchez
REPARTO: Naomi Watts, Ewan McGregor, Tom Holland, Geraldine Chaplin, Oaklee Pendergast, Samuel Joslin, Dominic Power, Sönke Möhring, Olivia Jackson, Natalie Lorence, Nicola Harrison, Bruce Blain, Johan Sundberg, Teo Quintavalle, Jan Roland Sundberg, Marta Etura
PRODUCTORA: Apaches Entertainment / Telecinco Cinema / Mediaset España / Canal+ España / IVAC / ICAA
GÉNERO: Drama | Basado en hechos reales. Catástrofes. Familia. Supervivencia
: http://www.imdb.es/title/tt1649419/

PREMIOS: 2012: Oscars: Nominada a mejor actriz (Naomi Watts)
2012: Globos de Oro: nominada a mejor actriz drama (Naomi Watts)
2012: Premios Goya: 14 nominaciones, incluyendo Mejor película y director
2012: Critics Choice Awards: Nominada a mejor actriz (Watts) e intérprete joven (Holland)
2012: National Board of Review (NBR): Mejor actor revelación (Tom Holland)
2012: 6 Premios Gaudí, incluyendo mejor director, fotografía y mejor película europea






Diciembre del año 2004. María (Naomi Watts), Henry (Ewan McGregor) y sus tres hijos pequeños vuelan desde Japón a Tailandia para pasar sus vacaciones de Navidad descansando en la playa. Una mañana, mientras se encuentran todos en la piscina del complejo a orillas del mar, un tremendo tsunami destroza el hotel al mismo tiempo que gran parte de la costa del sudeste asiático. Las vidas de millones de personas cambiaron para siempre. Esta es la historia de esta familia...






























La pelicula NO tiene ninguna marca... solo colocamos el nombre de esta web en las capturas






Código:
General
Format                                   : Matroska
Format version                           : Version 2
File size                                : 3.16 GiB
Duration                                 : 1h 53mn
Overall bit rate                         : 3 984 Kbps
Movie name                               : www.club-hd.com
Encoded date                             : UTC 2013-04-12 05:49:23
Writing application                      : mkvmerge v5.7.0 ('The Whirlwind') built on Jul  8 2012 20:08:51
Writing library                          : libebml v1.2.3 + libmatroska v1.3.0

Video
ID                                       : 1
Format                                   : AVC
Format/Info                              : Advanced Video Codec
Format profile                           : High@L4.1
Format settings, CABAC                   : Yes
Format settings, ReFrames                : 9 frames
Codec ID                                 : V_MPEG4/ISO/AVC
Duration                                 : 1h 53mn
Bit rate                                 : 2 705 Kbps
Width                                    : 1 280 pixels
Height                                   : 542 pixels
Display aspect ratio                     : 2.35:1
Frame rate mode                          : Constant
Frame rate                               : 24.000 fps
Color space                              : YUV
Chroma subsampling                       : 4:2:0
Bit depth                                : 8 bits
Scan type                                : Progressive
Bits/(Pixel*Frame)                       : 0.162
Stream size                              : 2.08 GiB (66%)
Title                                    : www.club-hd.com
Writing library                          : x264 core 129 r2245 bc13772
Language                                 : English
Default                                  : Yes
Forced                                   : No

Audio #1
ID                                       : 2
Format                                   : AC-3
Format/Info                              : Audio Coding 3
Mode extension                           : CM (complete main)
Format settings, Endianness              : Big
Codec ID                                 : A_AC3
Duration                                 : 1h 53mn
Bit rate mode                            : Constant
Bit rate                                 : 640 Kbps
Channel(s)                               : 6 channels
Channel positions                        : Front: L C R, Side: L R, LFE
Sampling rate                            : 48.0 KHz
Bit depth                                : 16 bits
Compression mode                         : Lossy
Stream size                              : 520 MiB (16%)
Title                                    : www.club-hd.com  >>  Latino
Language                                 : Spanish
Default                                  : Yes
Forced                                   : No

Audio #2
ID                                       : 3
Format                                   : AC-3
Format/Info                              : Audio Coding 3
Mode extension                           : CM (complete main)
Format settings, Endianness              : Big
Codec ID                                 : A_AC3
Duration                                 : 1h 53mn
Bit rate mode                            : Constant
Bit rate                                 : 640 Kbps
Channel(s)                               : 6 channels
Channel positions                        : Front: L C R, Side: L R, LFE
Sampling rate                            : 48.0 KHz
Bit depth                                : 16 bits
Compression mode                         : Lossy
Stream size                              : 520 MiB (16%)
Title                                    : www.club-hd.com  >>  Inglés
Language                                 : English
Default                                  : No
Forced                                   : No

Text #1
ID                                       : 4
Format                                   : UTF-8
Codec ID                                 : S_TEXT/UTF8
Codec ID/Info                            : UTF-8 Plain Text
Language                                 : Spanish
Default                                  : No
Forced                                   : No

Text #2
ID                                       : 5
Format                                   : UTF-8
Codec ID                                 : S_TEXT/UTF8
Codec ID/Info                            : UTF-8 Plain Text
Language                                 : English
Default                                  : No
Forced                                   : No

Menu
00:00:00.000                             : en:Chapter 1
00:07:10.292                             : en:Chapter 2
00:12:50.875                             : en:Chapter 3
00:21:20.250                             : en:Chapter 4
00:27:02.625                             : en:Chapter 5
00:31:59.083                             : en:Chapter 6
00:38:13.792                             : en:Chapter 7
00:44:35.833                             : en:Chapter 8
00:51:09.125                             : en:Chapter 9
00:56:24.042                             : en:Chapter 10
01:03:24.583                             : en:Chapter 11
01:10:14.500                             : en:Chapter 12
01:15:27.292                             : en:Chapter 13
01:23:51.083                             : en:Chapter 14
01:36:00.500                             : en:Chapter 15








Enlaces de Mega y Fireload solo disponibles para Miembros VIP

Compra tu Membresía VIP y apoya a Club-HD!

ATENCIÓN! Tenemos TODO el material de Club-HD disponible por Mega y Fireload, enlaces 100% activos y online hasta la fecha

Llévate tus cuentas Mega PRO II gratis con tu membresía VIP!
Todos los posts vivos con links de Mega y Fireload.
Todo el material de Club-HD desbloqueado y sin publicidad.

Click Aquí para más información.



Para ver este contenido oculto, debes dar click en una de las siguientes reacciones : Like Like, Love Love, Haha Haha, Wow Wow, Sad Sad, Angry Angry

 
Última edición por un moderador:

sephirothj

Active member
Registro
27 Ago 2012
Mensajes
655
Reacciones
32
Puntos
28
Edad
30

Reputation:

Ooooh!! Que bien.. Cada que entro a la página hay algo bueno.. muchas gracias.
 

elgrandario

Well-known member
Registro
29 Ago 2012
Mensajes
1.006
Reacciones
147
Puntos
63
Ubicación
Lima, Perú

Reputation:

quería esta versión más que la anterior. ustedes saben, siempre en la familia hay alguien que odia los idiomas extranjeros. muchas gracias por compartirla!
 

RUEDAS

Well-known member
Miembro del Staff
Súper Moderador
Uploader
Registro
1 Sep 2012
Mensajes
660
Reacciones
1.123
Puntos
93
Edad
41

Reputation:

thanks ......
 

Usuarios Que Están Viendo Este Tema (Total: 1, Miembros: 0, Invitados: 1)

Arriba