• Este aviso va dirigido a todos los nuevos miembros recien llegados a Club-HD. Les recordamos que la direccion URL de este sitio web es , asi que deben acceder únicamente por esta URL. Sean todos bienvenidos al Club!

The Invisible Man (2020) 1080p BDRip Dual Latino-Inglés [+EXTRAS] [HEVC-10bit] [Subt. Esp] (Ciencia ficción. Terror.)

REMREM

Well-known member
Miembro del Staff
Moderador
Uploader
Registrado
1 Oct 2017
Mensajes
244
Puntos de reacción
2,290
Puntos
93




Cecilia (Elisabeth Moss) rehace su vida tras recibir la noticia de que su exnovio,
un maltratador empedernido, ha fallecido. Sin embargo, su cordura
comienza a tambalearse cuando empieza tener la certeza de que en realidad sigue vivo.





Titulo: The Invisible Man
Pais: Estados Unidos
Año: 2020
Estudio: Blumhouse Productions
Calificacion por edades: ATP
Géneros: Ciencia ficción. Acción.
Dirección: Leigh Whannell
Guion: Leigh Whannell
Música: Benjamin Wallfisch
Fotografía: Stefan Duscio
Reparto: Elisabeth Moss, Storm Reid, Harriet Dyer, Aldis Hodge, Oliver Jackson-Cohen,
Zara Michales, Michael Dorman, Benedict Hardie, Renee Lim, Brian Meegan.



Resolución: 1080p 10bit
Codec de video: HEVC x265
Fuente: Blu-Ray
Formato: MKV
Duración: 124 min.
Peso: 3,80 GB
Audio: ESP-Lat 5.1 & Ingles USA 5.1
Subtitulos: Español Latino & Ingles USA


General
Unique ID : 225488421475385081175114325280676238996 (0xA9A37D8482C84FD3813AC7646689D694)
Complete name : D:\REMREM\The Invisible Man (2020)\El hombre invisible (2020) 1080p AC3.mkv
Format : Matroska
Format version : Version 4
File size : 3.53 GiB
Duration : 2 h 4 min
Overall bit rate : 4 065 kb/s
Movie name : El hombre invisible (2020) 1080p AC3
Encoded date : UTC 2020-05-21 04:00:59
Writing application : mkvmerge v27.0.0 ('Metropolis') 64-bit
Writing library : libebml v1.3.6 + libmatroska v1.4.9

Video
ID : 1
Format : HEVC
Format/Info : High Efficiency Video Coding
Format profile : Main 10@L4@Main
Codec ID : V_MPEGH/ISO/HEVC
Duration : 2 h 4 min
Bit rate : 3 060 kb/s
Width : 1 920 pixels
Height : 804 pixels
Display aspect ratio : 2.40:1
Frame rate mode : Constant
Frame rate : 23.976 (24000/1001) FPS
Color space : YUV
Chroma subsampling : 4:2:0
Bit depth : 10 bits
Bits/(Pixel*Frame) : 0.083
Stream size : 2.66 GiB (75%)
Title : El hombre invisible (2020) 1080p AC3
Writing library : x265 3.2+23-52135ffd9bcd:[Windows][GCC 9.2.0][64 bit] 10bit
Encoding settings : cpuid=1111039 / frame-threads=3 / numa-pools=8 / wpp / no-pmode / no-pme / no-psnr / no-ssim / log-level=2 / input-csp=1 / input-res=1920x804 / interlace=0 / total-frames=178936 / level-idc=0 / high-tier=1 / uhd-bd=0 / ref=4 / no-allow-non-conformance / no-repeat-headers / annexb / no-aud / no-hrd / info / hash=0 / no-temporal-layers / open-gop / min-keyint=23 / keyint=250 / gop-lookahead=0 / bframes=8 / b-adapt=2 / b-pyramid / bframe-bias=0 / rc-lookahead=25 / lookahead-slices=4 / scenecut=40 / hist-scenecut=0 / radl=0 / no-splice / no-intra-refresh / ctu=64 / min-cu-size=8 / rect / no-amp / max-tu-size=32 / tu-inter-depth=1 / tu-intra-depth=1 / limit-tu=0 / rdoq-level=2 / dynamic-rd=0.00 / no-ssim-rd / signhide / no-tskip / nr-intra=0 / nr-inter=0 / no-constrained-intra / strong-intra-smoothing / max-merge=3 / limit-refs=3 / limit-modes / me=3 / subme=3 / merange=57 / temporal-mvp / no-frame-dup / no-hme / weightp / no-weightb / no-analyze-src-pics / deblock=0:0 / no-sao / no-sao-non-deblock / rd=4 / selective-sao=0 / no-early-skip / rskip / no-fast-intra / no-tskip-fast / no-cu-lossless / no-b-intra / no-splitrd-skip / rdpenalty=0 / psy-rd=2.00 / psy-rdoq=1.00 / no-rd-refine / no-lossless / cbqpoffs=0 / crqpoffs=0 / rc=crf / crf=17.0 / qcomp=0.60 / qpstep=4 / stats-write=0 / stats-read=0 / ipratio=1.40 / pbratio=1.30 / aq-mode=3 / aq-strength=1.00 / cutree / zone-count=0 / no-strict-cbr / qg-size=32 / no-rc-grain / qpmax=69 / qpmin=0 / no-const-vbv / sar=0 / overscan=0 / videoformat=5 / range=0 / colorprim=2 / transfer=2 / colormatrix=2 / chromaloc=0 / display-window=0 / cll=0,0 / min-luma=0 / max-luma=1023 / log2-max-poc-lsb=8 / vui-timing-info / vui-hrd-info / slices=1 / no-opt-qp-pps / no-opt-ref-list-length-pps / no-multi-pass-opt-rps / scenecut-bias=0.05 / hist-threshold=0.01 / no-opt-cu-delta-qp / aq-motion / no-hdr / no-hdr-opt / no-dhdr10-opt / no-idr-recovery-sei / analysis-reuse-level=5 / scale-factor=0 / refine-intra=0 / refine-inter=0 / refine-mv=1 / refine-ctu-distortion=0 / no-limit-sao / ctu-info=0 / no-lowpass-dct / refine-analysis-type=0 / copy-pic=1 / max-ausize-factor=1.0 / no-dynamic-refine / no-single-sei / no-hevc-aq / no-svt / no-field / qp-adaptation-range=1.00 / no-scenecut-aware-qp
Default : Yes
Forced : No

Audio #1
ID : 2
Format : AC-3
Format/Info : Audio Coding 3
Commercial name : Dolby Digital
Codec ID : A_AC3
Duration : 2 h 4 min
Bit rate mode : Constant
Bit rate : 448 kb/s
Channel(s) : 6 channels
Channel layout : L R C LFE Ls Rs
Sampling rate : 48.0 kHz
Frame rate : 31.250 FPS (1536 SPF)
Compression mode : Lossy
Stream size : 399 MiB (11%)
Title : Español Latino
Language : Spanish
Service kind : Complete Main
Default : Yes
Forced : No

Audio #2
ID : 3
Format : AAC LC
Format/Info : Advanced Audio Codec Low Complexity
Codec ID : A_AAC-2
Duration : 2 h 4 min
Bit rate : 545 kb/s
Channel(s) : 8 channels
Channel layout : C L R Ls Rs Lb Rb LFE
Sampling rate : 48.0 kHz
Frame rate : 46.875 FPS (1024 SPF)
Compression mode : Lossy
Delay relative to video : 20 ms
Stream size : 485 MiB (13%)
Title : Ingles USA
Language : English
Default : No
Forced : No

Text #1
ID : 4
Format : PGS
Muxing mode : zlib
Codec ID : S_HDMV/PGS
Codec ID/Info : Picture based subtitle format used on BDs/HD-DVDs
Duration : 2 h 3 min
Bit rate : 17.0 kb/s
Count of elements : 1792
Stream size : 15.0 MiB (0%)
Title : Español Latino
Language : Spanish
Default : Yes
Forced : Yes

Text #2
ID : 5
Format : PGS
Muxing mode : zlib
Codec ID : S_HDMV/PGS
Codec ID/Info : Picture based subtitle format used on BDs/HD-DVDs
Duration : 2 h 3 min
Bit rate : 620 b/s
Count of elements : 52
Stream size : 559 KiB (0%)
Title : Español Latino
Language : Spanish
Default : No
Forced : No

Text #3
ID : 6
Format : VobSub
Muxing mode : zlib
Codec ID : S_VOBSUB
Codec ID/Info : Picture based subtitle format used on DVDs
Duration : 1 h 50 min
Bit rate : 6 906 b/s
Count of elements : 1048
Stream size : 5.44 MiB (0%)
Title : Ingles USA
Language : English
Default : No
Forced : No

Menu
00:00:00.000 : en:Chapter 01
00:11:05.456 : en:Chapter 02
00:16:08.968 : en:Chapter 03
00:19:16.321 : en:Chapter 04
00:25:27.651 : en:Chapter 05
00:35:52.233 : en:Chapter 06
00:39:50.179 : en:Chapter 07
00:46:35.459 : en:Chapter 08
00:52:41.867 : en:Chapter 09
01:01:22.011 : en:Chapter 10
01:08:59.802 : en:Chapter 11
01:14:49.735 : en:Chapter 12
01:19:23.925 : en:Chapter 13
01:24:46.539 : en:Chapter 14
01:30:25.336 : en:Chapter 15
01:35:24.927 : en:Chapter 16
01:39:33.342 : en:Chapter 17
01:43:04.178 : en:Chapter 18
01:48:54.694 : en:Chapter 19
01:53:38.603 : en:Chapter 20













Para ver este contenido oculto, debes dar click en una de las siguientes reacciones: Like Like, Love Love, Haha Haha, Wow Wow, Sad Sad, Angry Angry


Para ver este contenido oculto, debes dar click en una de las siguientes reacciones: Like Like, Love Love, Haha Haha, Wow Wow, Sad Sad, Angry Angry

Enlaces de Mega y Google Drive solo disponibles para Miembros VIP

Compra tu Membresía VIP y apoya a Club-HD!

ATENCIÓN! Tenemos TODO el material de Club-HD disponible por Mega y Google Drive, enlaces 100% activos y online hasta la fecha

Llévate tus cuentas Mega PRO II gratis con tu membresía VIP!
Todos los posts vivos con links de Mega y Google Drive.
Todo el material de Club-HD desbloqueado y sin publicidad.

Click Aquí para más información.

Enlaces de Mega y Google Drive solo disponibles para Miembros VIP

Compra tu Membresía VIP y apoya a Club-HD!

ATENCIÓN! Tenemos TODO el material de Club-HD disponible por Mega y Google Drive, enlaces 100% activos y online hasta la fecha

Llévate tus cuentas Mega PRO II gratis con tu membresía VIP!
Todos los posts vivos con links de Mega y Google Drive.
Todo el material de Club-HD desbloqueado y sin publicidad.

Click Aquí para más información.
CONTRASEÑA

 

cripp

Well-known member
Registrado
27 Ago 2012
Mensajes
7,925
Puntos de reacción
449
Puntos
113
Gracias por compartir
 

Klass

Tarja Turunen ♥
Uploader
Registrado
27 Sep 2015
Mensajes
728
Puntos de reacción
5,647
Puntos
93
Volviste socio :cool:
 

Usuarios Que Están Viendo Este Tema (Total: 1, Miembros: 0, Invitados: 1)

Arriba