The Jungle Book (1967) m-1080p BDRip Dual Latino-Inglés [Subt. Esp] (Animación)

Maestro Revolver

Well-known member
Miembro del Staff
Administrador
Registro
9 Ago 2012
Mensajes
3.567








TÍTULO ORIGINAL: The Jungle Book
AÑO: 1967
DURACIÓN: 78 min.
PAÍS: USA
DIRECTOR: Wolfgang Reitherman
GUIÓN: Larry Clemmons (Novela: Rudyard Kipling)
REPARTO: Animation
PRODUCTORA: Walt Disney
GÉNERO: Animación. Aventuras. Musical. Comedia. Infantil
: http://www.imdb.com/title/tt0061852/






Tras la muerte de sus padres, Mowgli, un niño de apenas dos años, queda abandonado en la selva y es recogido por una manada de lobos. En el seno de la manada, Mowgli es criado como un lobo más hasta que crece y empieza a desenvolverse por sí mismo en la selva.
























La pelicula NO tiene ninguna marca... solo colocamos el nombre de esta web en las capturas






Código:
General
Format                                   : Matroska
Format version                           : Version 2
File size                                : 3.29 GiB
Duration                                 : 1h 18mn
Overall bit rate                         : 6 011 Kbps
Movie name                               : www.club-hd.com
Encoded date                             : UTC 2013-08-23 15:11:55
Writing application                      : mkvmerge v5.7.0 ('The Whirlwind') built on Jul  8 2012 20:08:51
Writing library                          : libebml v1.2.3 + libmatroska v1.3.0

Video
ID                                       : 1
Format                                   : AVC
Format/Info                              : Advanced Video Codec
Format profile                           : Main@L4.0
Format settings, CABAC                   : Yes
Format settings, ReFrames                : 4 frames
Codec ID                                 : V_MPEG4/ISO/AVC
Duration                                 : 1h 18mn
Bit rate                                 : 4 750 Kbps
Width                                    : 1 888 pixels
Height                                   : 1 080 pixels
Display aspect ratio                     : 16:9
Frame rate mode                          : Constant
Frame rate                               : 23.976 fps
Color space                              : YUV
Chroma subsampling                       : 4:2:0
Bit depth                                : 8 bits
Scan type                                : Progressive
Bits/(Pixel*Frame)                       : 0.097
Stream size                              : 2.53 GiB (77%)
Title                                    : www.club-hd.com
Writing library                          : x264 core 112
Language                                 : English
Default                                  : Yes
Forced                                   : No
Color primaries                          : BT.709
Transfer characteristics                 : BT.709
Matrix coefficients                      : BT.709

Audio #1
ID                                       : 2
Format                                   : AC-3
Format/Info                              : Audio Coding 3
Mode extension                           : CM (complete main)
Format settings, Endianness              : Big
Codec ID                                 : A_AC3
Duration                                 : 1h 18mn
Bit rate mode                            : Constant
Bit rate                                 : 640 Kbps
Channel(s)                               : 6 channels
Channel positions                        : Front: L C R, Side: L R, LFE
Sampling rate                            : 48.0 KHz
Bit depth                                : 16 bits
Compression mode                         : Lossy
Stream size                              : 359 MiB (11%)
Title                                    : www.club-hd.com > Latino
Language                                 : Spanish
Default                                  : Yes
Forced                                   : No

Audio #2
ID                                       : 3
Format                                   : AC-3
Format/Info                              : Audio Coding 3
Mode extension                           : CM (complete main)
Format settings, Endianness              : Big
Codec ID                                 : A_AC3
Duration                                 : 1h 18mn
Bit rate mode                            : Constant
Bit rate                                 : 640 Kbps
Channel(s)                               : 6 channels
Channel positions                        : Front: L C R, Side: L R, LFE
Sampling rate                            : 48.0 KHz
Bit depth                                : 16 bits
Compression mode                         : Lossy
Stream size                              : 359 MiB (11%)
Title                                    : www.club-hd.com > Inglés
Language                                 : English
Default                                  : No
Forced                                   : No

Text
ID                                       : 4
Format                                   : UTF-8
Codec ID                                 : S_TEXT/UTF8
Codec ID/Info                            : UTF-8 Plain Text
Language                                 : Spanish
Default                                  : No
Forced                                   : No

Menu
00:00:00.000                             : en:Chapter 1
00:02:30.358                             : en:Chapter 2
00:04:31.938                             : en:Chapter 3
00:06:07.241                             : en:Chapter 4
00:09:42.164                             : en:Chapter 5
00:13:04.700                             : en:Chapter 6
00:14:57.563                             : en:Chapter 7
00:21:05.973                             : en:Chapter 8
00:24:15.787                             : en:Chapter 9
00:25:14.638                             : en:Chapter 10
00:29:44.532                             : en:Chapter 11
00:33:46.899                             : en:Chapter 12
00:39:15.019                             : en:Chapter 13
00:43:47.499                             : en:Chapter 14
00:47:12.704                             : en:Chapter 15
00:52:51.042                             : en:Chapter 16
00:55:15.729                             : en:Chapter 17
01:01:04.702                             : en:Chapter 18
01:04:20.231                             : en:Chapter 19
01:06:49.880                             : en:Chapter 20
01:07:39.638                             : en:Chapter 21
01:10:15.794                             : en:Chapter 22
01:13:24.400                             : en:Chapter 23
01:16:52.357                             : en:Chapter 24






Código:
www.club-hd.com








Enlaces de Mega y Google Drive solo disponibles para Miembros VIP

Compra tu Membresía VIP y apoya a Club-HD!

ATENCIÓN! Tenemos TODO el material de Club-HD disponible por Mega y Google Drive, enlaces 100% activos y online hasta la fecha

Llévate tus cuentas Mega PRO III gratis con tu membresía VIP!
Todos los posts vivos con links de Mega y Google Drive.
Todo el material de Club-HD desbloqueado y sin publicidad.

Click Aquí para más información.



Para ver este contenido oculto, debes dar click en una de las siguientes reacciones : Like Like, Love Love, Haha Haha, Wow Wow, Sad Sad, Angry Angry
 
Última edición por un moderador:

HemoAr

Dohko de Libra
Administrador
Uploader
Miembro VIP
Registro
9 Mar 2013
Mensajes
10.597
Ubicación
Rozan
:aplausos: Un clasico, sin duda alguna. Esperando y este en 720p LXR_2LXR_2LXR_2 Muchas muchas gracias por tan buenas peliculas, por tanto trabajo y esfuerzo y dedicacion. Sin duda alguna eres Grande Super Revolver22
 

cripp

Well-known member
Registro
27 Ago 2012
Mensajes
10.594
Que buena, hacia tiempo que no la veía, muchas gracias por compartir, directo a descargar, gracias por el aporte.
 

Usuarios Que Están Viendo Este Tema (Total: 1, Miembros: 0, Invitados: 1)

Quién Leyó Este Tema (Total Miembros: 5)

Arriba