The Last Airbender (2010) m-720p Dual Latino-Inglés [Subt. Esp-Ing] (Fantástico. Aventura)

Maestro Revolver

Well-known member
Miembro del Staff
Administrador
Registro
9 Ago 2012
Mensajes
3.569
Reacciones
59.341
Puntos
113

Reputation:


Aporte Recuperado gracias a nuestro amigo r3dqu33n







TÍTULO ORIGINAL: The Last Airbender (AKA Avatar)
AÑO: 2010
DURACIÓN: 103 min.
PAÍS: USA
DIRECTOR: M. Night Shyamalan
GUIÓN: M. Night Shyamalan (Serie de TV: Michael Dante DiMartino, Bryan Konietzko)
REPARTO: Noah Ringer, Dev Patel, Jackson Rathbone, Nicola Peltz, Shaun Toub, Aasif Mandvi, Cliff Curtis, Jessica Andres, Seychelle Gabriel, Keong Sim
PRODUCTORA: Paramount Pictures / Nickelodeon Movies / MTV Films
GÉNERO: Fantástico. Aventuras | Artes marciales. 3-D
: http://www.imdb.com/title/tt0938283/






Fantasía épica que adapta la serie "Avatar: The Last Airbender". La nación del Fuego declara la guerra a las naciones del Aire, el Agua y la Tierra. Tras un siglo de lucha, no hay esperanza alguna de acabar con tanta destrucción. Aang (Noah Ringer), el más reciente sucesor del ciclo del avatar, el único con poder para controlar los cuatro elementos, tendrá que viajar hasta el Polo Norte para dominarlos y poner fin a la guerra. En esta aventura se unen a él Katara, una Maestra Agua, y su hermano Sokka. Durante su viaje serán perseguidos por el príncipe Zuko (Dev Patel), el cual intenta capturar al avatar para recuperar su honor...
























La pelicula NO tiene ninguna marca... solo colocamos el nombre de esta web en las capturas






Código:
General
Format                                   : Matroska
Format version                           : Version 2
File size                                : 2.79 GiB
Duration                                 : 1h 43mn
Overall bit rate                         : 3 869 Kbps
Movie name                               : www.club-hd.com
Encoded date                             : UTC 2012-12-24 00:15:41
Writing application                      : mkvmerge v5.7.0 ('The Whirlwind') built on Jul  8 2012 20:08:51
Writing library                          : libebml v1.2.3 + libmatroska v1.3.0

Video
ID                                       : 1
Format                                   : AVC
Format/Info                              : Advanced Video Codec
Format profile                           : High@L3.1
Format settings, CABAC                   : Yes
Format settings, ReFrames                : 6 frames
Codec ID                                 : V_MPEG4/ISO/AVC
Duration                                 : 1h 43mn
Bit rate                                 : 3 000 Kbps
Width                                    : 1 280 pixels
Height                                   : 544 pixels
Display aspect ratio                     : 2.35:1
Frame rate mode                          : Constant
Frame rate                               : 23.976 fps
Color space                              : YUV
Chroma subsampling                       : 4:2:0
Bit depth                                : 8 bits
Scan type                                : Progressive
Bits/(Pixel*Frame)                       : 0.180
Stream size                              : 2.09 GiB (75%)
Title                                    : www.club-hd.com
Writing library                          : x264 core 120
Language                                 : English
Default                                  : Yes
Forced                                   : No
Color primaries                          : BT.709
Transfer characteristics                 : BT.709
Matrix coefficients                      : BT.709

Audio #1
ID                                       : 2
Format                                   : AC-3
Format/Info                              : Audio Coding 3
Mode extension                           : CM (complete main)
Format settings, Endianness              : Big
Codec ID                                 : A_AC3
Duration                                 : 1h 43mn
Bit rate mode                            : Constant
Bit rate                                 : 448 Kbps
Channel(s)                               : 6 channels
Channel positions                        : Front: L C R, Side: L R, LFE
Sampling rate                            : 48.0 KHz
Bit depth                                : 16 bits
Compression mode                         : Lossy
Stream size                              : 331 MiB (12%)
Title                                    : www.club-hd.com  >>  Latino
Language                                 : Spanish
Default                                  : Yes
Forced                                   : No

Audio #2
ID                                       : 3
Format                                   : AC-3
Format/Info                              : Audio Coding 3
Mode extension                           : CM (complete main)
Format settings, Endianness              : Big
Codec ID                                 : A_AC3
Duration                                 : 1h 43mn
Bit rate mode                            : Constant
Bit rate                                 : 448 Kbps
Channel(s)                               : 6 channels
Channel positions                        : Front: L C R, Side: L R, LFE
Sampling rate                            : 48.0 KHz
Bit depth                                : 16 bits
Compression mode                         : Lossy
Stream size                              : 331 MiB (12%)
Title                                    : www.club-hd.com  >>  Inglés
Language                                 : English
Default                                  : No
Forced                                   : No

Text #1
ID                                       : 4
Format                                   : UTF-8
Codec ID                                 : S_TEXT/UTF8
Codec ID/Info                            : UTF-8 Plain Text
Language                                 : Spanish
Default                                  : No
Forced                                   : No

Text #2
ID                                       : 5
Format                                   : UTF-8
Codec ID                                 : S_TEXT/UTF8
Codec ID/Info                            : UTF-8 Plain Text
Language                                 : English
Default                                  : No
Forced                                   : No

Menu
00:00:00.000                             : en:Chapter 1
00:11:45.413                             : en:Chapter 2
00:18:07.753                             : en:Chapter 3
00:26:34.635                             : en:Chapter 4
00:38:04.991                             : en:Chapter 5
00:51:10.985                             : en:Chapter 6
00:59:56.968                             : en:Chapter 7
01:09:05.725                             : en:Chapter 8
01:18:46.096                             : en:Chapter 9
01:28:10.494                             : en:Chapter 10
01:35:03.281                             : en:Chapter 11







Código:
www.club-hd.com[/CENTER]







Todos los links son Intercambiables!





Enlaces de Mega y Fireload solo disponibles para Miembros VIP

Compra tu Membresía VIP y apoya a Club-HD!

ATENCIÓN! Tenemos TODO el material de Club-HD disponible por Mega y Fireload, enlaces 100% activos y online hasta la fecha

Llévate tus cuentas Mega PRO II gratis con tu membresía VIP!
Todos los posts vivos con links de Mega y Fireload.
Todo el material de Club-HD desbloqueado y sin publicidad.

Click Aquí para más información.




Enlaces de Mega y Fireload solo disponibles para Miembros VIP

Compra tu Membresía VIP y apoya a Club-HD!

ATENCIÓN! Tenemos TODO el material de Club-HD disponible por Mega y Fireload, enlaces 100% activos y online hasta la fecha

Llévate tus cuentas Mega PRO II gratis con tu membresía VIP!
Todos los posts vivos con links de Mega y Fireload.
Todo el material de Club-HD desbloqueado y sin publicidad.

Click Aquí para más información.



Para ver este contenido oculto, debes dar click en una de las siguientes reacciones : Like Like, Love Love, Haha Haha, Wow Wow, Sad Sad, Angry Angry
 
Última edición:

Joker

Well-known member
Miembro del Staff
Súper Moderador
Registro
27 Ago 2012
Mensajes
1.349
Reacciones
3.759
Puntos
113
Ubicación
Arkham Asylum

Reputation:

Desc_g_

Que bueno que aun no descargaba la versión 1080p de esta película si quería la 720p =P

Gracias!!!

Saludos :D
 

Nosferatu

Well-known member
Súper Moderador
Registro
31 Ago 2012
Mensajes
2.275
Reacciones
1.362
Puntos
113
Edad
44
Ubicación
Welcome to Hell!!

Reputation:

Yo ya me baje la 1080p, me gustan mas en esa calidad, pero muchas Gracias por esta versión.:aplausos:

Gracias Mister R21!:aplausos:
 

Pedrum

The Buckminster
Registro
28 Ago 2012
Mensajes
1.092
Reacciones
1.546
Puntos
113
Ubicación
Bahia Blanca

Reputation:

Gracias por cumplir Revolver, la estábamos esperando.

Saludos! victory
 

eljumachi

Well-known member
Miembro VIP
Registro
27 Ago 2012
Mensajes
2.174
Reacciones
338
Puntos
83

Reputation:

Gracias R21 Saludos , Que la paz reine en todos los corazones de los miembros de club Hd y todo habitante de nuestro planeta son mis mas sinceros deseos para todos, Bendiciones y que pasen una Felices Fiestas de Navidad.
 

Usuarios Que Están Viendo Este Tema (Total: 1, Miembros: 0, Invitados: 1)

Arriba