The Last Samurai (2003) m-720p Dual Latino-Inglés [Subt. Esp-Ing] (Aventura. Acción)

Maestro Revolver

Well-known member
Miembro del Staff
Administrador
Registro
9 Ago 2012
Mensajes
3.567








TÍTULO ORIGINAL: The Last Samurai
AÑO: 2003
PAÍS: USA
DIRECTOR: Edward Zwick
GUIÓN: John Logan, Edward Zwick, Marshall Herskovitz
REPARTO: Tom Cruise, Ken Watanabe, Billy Connolly, Tony Goldwyn, Timothy Spall, Koyuki, Masato Harada, Togo Igawa, William Atherton, Seizo Fukumoto, Scott Wilson, Shun Sugata, Hiroyuki Sanada, Shin Koyamada
PRODUCTORA: Warner Bros. Pictures
GÉNERO: Aventuras. Acción | Japón feudal. Siglo XIX. Samuráis. Ninjas. Cine épico
http://www.imdb.com/title/tt0325710/

PREMIOS: 2003: 4 nominaciones al Oscar, incluyendo mejor actor de reparto, vestuario, sonido
2003: 3 nominaciones al Globo de Oro: Mejor actor de reparto, actor de drama, bso
2003: National Board of Review: Mejor director (Edward Zwick)





1876. El capitán Nathan Algren es un hombre que vive atormentado por los recuerdos de la Guerra Civil (1861-1865) y de las campañas contra los indios, en las que participó arriesgando su vida; pero, desde entonces, el mundo ha cambiado radicalmente: el pragmatismo ha reemplazado al valor, el interés personal ha ocupado el lugar del sacrificio, y el sentido del honor ha desaparecido. En un país muy lejano, otro soldado ve también cómo su modo de vida está a punto de desintegrarse. Es Katsumoto, el último líder de un antiguo linaje de guerreros, los venerados samuráis, que dedicaron sus vidas a servir al emperador y a preservar el espíritu de la milenaria cultura japonesa.
























La pelicula NO tiene ninguna marca... solo colocamos el nombre de esta web en las capturas






Código:
General
Format                                   : Matroska
Format version                           : Version 2
File size                                : 3.91 GiB
Duration                                 : 2h 34mn
Overall bit rate                         : 3 622 Kbps
Movie name                               : www.club-hd.com
Encoded date                             : UTC 2012-09-14 03:05:59
Writing application                      : mkvmerge v3.4.0 ('Rapunzel') built on May 15 2010 09:38:20
Writing library                          : libebml v0.8.0 + libmatroska v0.9.0

Video
ID                                       : 1
Format                                   : AVC
Format/Info                              : Advanced Video Codec
Format profile                           : High@L4.1
Format settings, CABAC                   : Yes
Format settings, ReFrames                : 5 frames
Codec ID                                 : V_MPEG4/ISO/AVC
Duration                                 : 2h 34mn
Bit rate                                 : 2 800 Kbps
Width                                    : 1 280 pixels
Height                                   : 528 pixels
Display aspect ratio                     : 2.40:1
Frame rate mode                          : Constant
Frame rate                               : 23.976 fps
Color space                              : YUV
Chroma subsampling                       : 4:2:0
Bit depth                                : 8 bits
Scan type                                : Progressive
Bits/(Pixel*Frame)                       : 0.173
Stream size                              : 2.94 GiB (75%)
Title                                    : www.club-hd.com
Writing library                          : x264 core 125 r2200 999b753
Language                                 : English
Default                                  : Yes
Forced                                   : No

Audio #1
ID                                       : 2
Format                                   : AC-3
Format/Info                              : Audio Coding 3
Format profile                           : Dolby Digital
Mode extension                           : CM (complete main)
Format settings, Endianness              : Big
Codec ID                                 : A_AC3
Duration                                 : 2h 34mn
Bit rate mode                            : Constant
Bit rate                                 : 192 Kbps
Channel(s)                               : 2 channels
Channel positions                        : Front: L R
Sampling rate                            : 48.0 KHz
Bit depth                                : 16 bits
Compression mode                         : Lossy
Delay relative to video                  : 1s 400ms
Stream size                              : 212 MiB (5%)
Title                                    : www.club-hd.com  >>  Latino
Language                                 : Spanish
Default                                  : Yes
Forced                                   : No

Audio #2
ID                                       : 3
Format                                   : AC-3
Format/Info                              : Audio Coding 3
Mode extension                           : CM (complete main)
Format settings, Endianness              : Big
Codec ID                                 : A_AC3
Duration                                 : 2h 34mn
Bit rate mode                            : Constant
Bit rate                                 : 640 Kbps
Channel(s)                               : 6 channels
Channel positions                        : Front: L C R, Side: L R, LFE
Sampling rate                            : 48.0 KHz
Bit depth                                : 16 bits
Compression mode                         : Lossy
Stream size                              : 708 MiB (18%)
Title                                    : www.club-hd.com  >>  Ingles
Language                                 : English
Default                                  : No
Forced                                   : No

Text #1
ID                                       : 4
Format                                   : ASS
Codec ID                                 : S_TEXT/ASS
Codec ID/Info                            : Advanced Sub Station Alpha
Compression mode                         : Lossless
Title                                    : Español Forzados
Language                                 : Spanish
Default                                  : Yes
Forced                                   : No

Text #2
ID                                       : 5
Format                                   : ASS
Codec ID                                 : S_TEXT/ASS
Codec ID/Info                            : Advanced Sub Station Alpha
Compression mode                         : Lossless
Title                                    : Español
Language                                 : Spanish
Default                                  : No
Forced                                   : No

Text #3
ID                                       : 6
Format                                   : ASS
Codec ID                                 : S_TEXT/ASS
Codec ID/Info                            : Advanced Sub Station Alpha
Compression mode                         : Lossless
Title                                    : Inglés
Language                                 : English
Default                                  : No
Forced                                   : No








NOTA: Este aporte es un ripero de nuestro amigo Nytrux que se tomo el tiempo del ripeo y editar los subtitulos español .ass (Subtítulos en la parte superior) Yo solo subi la pelicula a nuestros servidores. Muchas gracias por el aporte :dplgar:

Aporte Exclusivo de Nytrux para Club-HD










Enlaces de Mega y Google Drive solo disponibles para Miembros VIP

Compra tu Membresía VIP y apoya a Club-HD!

ATENCIÓN! Tenemos TODO el material de Club-HD disponible por Mega y Google Drive, enlaces 100% activos y online hasta la fecha

Llévate tus cuentas Mega PRO III gratis con tu membresía VIP!
Todos los posts vivos con links de Mega y Google Drive.
Todo el material de Club-HD desbloqueado y sin publicidad.

Click Aquí para más información.




Enlaces de Mega y Google Drive solo disponibles para Miembros VIP

Compra tu Membresía VIP y apoya a Club-HD!

ATENCIÓN! Tenemos TODO el material de Club-HD disponible por Mega y Google Drive, enlaces 100% activos y online hasta la fecha

Llévate tus cuentas Mega PRO III gratis con tu membresía VIP!
Todos los posts vivos con links de Mega y Google Drive.
Todo el material de Club-HD desbloqueado y sin publicidad.

Click Aquí para más información.


Para ver este contenido oculto, debes dar click en una de las siguientes reacciones : Like Like, Love Love, Haha Haha, Wow Wow, Sad Sad, Angry Angry

 
Última edición por un moderador:

sunker-123

New member
Registro
27 Ago 2012
Mensajes
2.427
Edad
32
Muchas gracias ya desde hace tiempo queria esta pelicula pero como estaba en 1080p no la habia podido bajar y ahora que esta en 720p a descargar se ha dicho....
muchas gracias..:sprloc:
 

Nytrux

Active member
Registro
27 Ago 2012
Mensajes
402
Con este aporte me di cuenta del tremendo trabajo que realizan nuestros amigos de Club HD a toda la comunidad. La verdad es que son horas de encodeo por película para que nosotros las disfrutemos sin nada a cambio, desde acá felicito a Revolver y Max por su trabajo, y lo menos que podemos hacer es agradecerles. Muchas gracias amigos y sigan así. :aplausos:
 

Omar Herrera

Well-known member
Miembro del Staff
Súper Moderador
Miembro VIP
Registro
27 Ago 2012
Mensajes
1.236
Edad
33
Ubicación
Managua
Excelente! la estaba esperando en 720p.. es mi ultimo dia premium.. a bajar!
Graciasr Revolver!
Desc_g_
 

Omar Herrera

Well-known member
Miembro del Staff
Súper Moderador
Miembro VIP
Registro
27 Ago 2012
Mensajes
1.236
Edad
33
Ubicación
Managua
Con este aporte me di cuenta del tremendo trabajo que realizan nuestros amigos de Club HD a toda la comunidad. La verdad es que son horas de encodeo por película para que nosotros las disfrutemos sin nada a cambio, desde acá felicito a Revolver y Max por su trabajo, y lo menos que podemos hacer es agradecerles. Muchas gracias amigos y sigan así. :aplausos:

Gracias amigo por tu trabajo, luego te cuento si esta al nivel de revolver y max :rs:
Nah, es broma, si Revolver confio en ti yo tambien amigo.. Gracias nuevamente por tu trabajo
 

eljumachi

Well-known member
Miembro VIP
Registro
27 Ago 2012
Mensajes
2.197
No me queda mas que agradecerles a los Tres R-21 , Max, Y hoy a Omar por su esfuerzo muy buena película lo estaba esperando de este tamaño Saludos .
 

Usuarios Que Están Viendo Este Tema (Total: 1, Miembros: 0, Invitados: 1)

Quién Leyó Este Tema (Total Miembros: 2)

Arriba