The Lord of the Rings: The Rings of Power S01:E01~E05 (2022) 1080p AMZN WEB-DL HEVC Lat-Ing [Sub.Esp] (Serie de TV.Fantástico)

LuchoO

責任者
Miembro del Staff
Moderador
Uploader
Miembro VIP
Registro
15 Ago 2015
Mensajes
1.017
Soluciones
1











Serie de TV (2022-). En un periodo de relativa calma, los personajes se enfrentan al resurgimiento del mal en la Tierra Media. Desde las profundidades más oscuras de las Montañas Nubladas hasta los majestuosos bosques de Lindon, el impresionante reino insular de Númenor y los confines más lejanos del mapa, estos reinos y personajes esculpirán legados que perdurarán en el tiempo. Serie de TV basada en los libros de J.R.R. Tolkien, ambientada en la Tierra Media, y que explora nuevas líneas argumentales en una época muy anterior a "La comunidad del anillo".






















General
Complete name : The Lord of the Rings The Rings of Power S01E01 - A Shadow of the Past [1080p-HEVC].mkv
Format : Matroska
Format version : Version 4
File size : 2.60 GiB
Duration : 1 h 5 min
Overall bit rate : 5 649 kb/s
Movie name : [LuchoO] The Lord of the Rings The Rings of Power S01E01 - A Shadow of the Past [1080p].mkv
Encoded date : UTC 2022-09-02 04:01:59
Writing application : mkvmerge v50.0.0 ('Awakenings') 64-bit
Writing library : libebml v1.4.0 + libmatroska v1.6.2

Video
ID : 1
Format : HEVC
Format/Info : High Efficiency Video Coding
Format profile : Main@L4@Main
Codec ID : V_MPEGH/ISO/HEVC
Duration : 1 h 5 min
Bit rate : 4 367 kb/s
Width : 1 920 pixels
Height : 800 pixels
Display aspect ratio : 2.40:1
Frame rate mode : Constant
Frame rate : 24.000 FPS
Standard : NTSC
Color space : YUV
Chroma subsampling : 4:2:0
Bit depth : 8 bits
Bits/(Pixel*Frame) : 0.118
Stream size : 2.01 GiB (77%)
Default : Yes
Forced : No
Color range : Limited
Color primaries : BT.709
Transfer characteristics : BT.709
Matrix coefficients : BT.709

Audio #1
ID : 2
Format : E-AC-3
Format/Info : Enhanced AC-3
Commercial name : Dolby Digital Plus
Codec ID : A_EAC3
Duration : 1 h 5 min
Bit rate mode : Constant
Bit rate : 640 kb/s
Channel(s) : 6 channels
Channel layout : L R C LFE Ls Rs
Sampling rate : 48.0 kHz
Frame rate : 31.250 FPS (1536 SPF)
Compression mode : Lossy
Stream size : 301 MiB (11%)
Title : Spanish
Language : Spanish
Service kind : Complete Main
Default : No
Forced : No

Audio #2
ID : 3
Format : E-AC-3
Format/Info : Enhanced AC-3
Commercial name : Dolby Digital Plus
Codec ID : A_EAC3
Duration : 1 h 5 min
Bit rate mode : Constant
Bit rate : 640 kb/s
Channel(s) : 6 channels
Channel layout : L R C LFE Ls Rs
Sampling rate : 48.0 kHz
Frame rate : 31.250 FPS (1536 SPF)
Compression mode : Lossy
Stream size : 301 MiB (11%)
Title : English
Language : English
Service kind : Complete Main
Default : No
Forced : No

Text #1
ID : 4
Format : UTF-8
Codec ID : S_TEXT/UTF8
Codec ID/Info : UTF-8 Plain Text
Duration : 48 min 56 s
Bit rate : 0 b/s
Count of elements : 12
Stream size : 335 Bytes (0%)
Title : Spanish forced
Language : Spanish
Default : Yes
Forced : Yes

Text #2
ID : 5
Format : UTF-8
Codec ID : S_TEXT/UTF8
Codec ID/Info : UTF-8 Plain Text
Duration : 1 h 2 min
Bit rate : 42 b/s
Count of elements : 630
Stream size : 19.6 KiB (0%)
Language : Spanish
Default : No
Forced : No

Text #3
ID : 6
Format : UTF-8
Codec ID : S_TEXT/UTF8
Codec ID/Info : UTF-8 Plain Text
Duration : 59 min 7 s
Bit rate : 52 b/s
Count of elements : 761
Stream size : 22.9 KiB (0%)
Title : SDH
Language : English
Default : No
Forced : No



★Todos los links son Intercambiables★



Enlaces de Mega y Google Drive solo disponibles para Miembros VIP

Compra tu Membresía VIP y apoya a Club-HD!

ATENCIÓN! Tenemos TODO el material de Club-HD disponible por Mega y Google Drive, enlaces 100% activos y online hasta la fecha

Llévate tus cuentas Mega PRO III gratis con tu membresía VIP!
Todos los posts vivos con links de Mega y Google Drive.
Todo el material de Club-HD desbloqueado y sin publicidad.

Click Aquí para más información.


Enlaces de Mega y Google Drive solo disponibles para Miembros VIP

Compra tu Membresía VIP y apoya a Club-HD!

ATENCIÓN! Tenemos TODO el material de Club-HD disponible por Mega y Google Drive, enlaces 100% activos y online hasta la fecha

Llévate tus cuentas Mega PRO III gratis con tu membresía VIP!
Todos los posts vivos con links de Mega y Google Drive.
Todo el material de Club-HD desbloqueado y sin publicidad.

Click Aquí para más información.


Para ver este contenido oculto, debes dar click en una de las siguientes reacciones : Like Like, Love Love, Haha Haha, Wow Wow, Sad Sad, Angry Angry


Para ver este contenido oculto, debes dar click en una de las siguientes reacciones : Like Like, Love Love, Haha Haha, Wow Wow, Sad Sad, Angry Angry
★ CONTRASEÑA ★
www.club-hd.com

"Solo Audio Latino"
 
Última edición:

FUNKSW

Well-known member
Miembro VIP
Registro
12 Dic 2015
Mensajes
508
Edad
45
Hola. Muchas gracias por la subida.

Me gustaría saber, si irás agregando capítulos en éste mismo hilo o habrá que esperar a los subsiguientes episodios, un capítulo por post?.

Por otro lado, publicaste o estarás publicando House of Dragons?.

Saludos.
 

FUNKSW

Well-known member
Miembro VIP
Registro
12 Dic 2015
Mensajes
508
Edad
45
Una vez más, gracias por la subida. Yo la verdad, es que adoro tus aportes porque a mi humilde ver se miran bien los colores y el audio es muy bueno (aún uso 2.1, por cierto). En sí, yo básicamente descargo sólo de tus aportes porque el peso que quedan, todavía me animo a almacenar, ya que no cuento por el momento con los recursos para hacer más. Así que muchas gracias por hacer feliz a éste viejito con tus aportazos.
 

Usuarios Que Están Viendo Este Tema (Total: 1, Miembros: 0, Invitados: 1)

Arriba