The Man With The Iron Fists (2012) UNRATED m-720p BDRip Dual Latino-Inglés [Subt. Esp-Ing] (Acción. Artes marciales)

Max

Admin
Miembro del Staff
Administrador
Registro
8 Ago 2012
Mensajes
5.587
Reacciones
23.753
Puntos
113
Ubicación
Disco C

Reputation:





TÍTULO ORIGINAL: The Man with the Iron Fists
AÑO: 2012
DURACIÓN: 96 min.
PAÍS: Estados Unidos
DIRECTOR: RZA
GUIÓN: Eli Roth, RZA
MÚSICA: Howard Drossin
FOTOGRAFÍA: Chi Ying Chan
REPARTO: RZA, Russell Crowe, Lucy Liu, Byron Mann, Jamie Chung, Rick Yune, Dave Bautista, Cung Le, MC Jin, Gordon Liu, Chen Kuan Tai, Ka Yan Leung, Andrew Lin, Grace Huang, Telly Liu, Xue Jingyao, Pam Grier, Zhu Zhu, Daniel Wu, Chia Hui Liu, Andrew Ng, Yoyao Hsueh, Jin Auyeung, Brian Yang, Grace Huang, Lu Kai, Darren E. Scott, Eli Roth, Osric Chau, Celina Jade, Jin Auyeung, Dennis Chan, Terence Yin
PRODUCTORA: Arcade Pictures / Iron Fists
GÉNERO: Acción | Artes marciales. Edad Media

http://www.imdb.com/title/tt1258972/?ref_=fn_al_tt_1






La acción transcurre en la China feudal y el protagonista es un forastero que se dedica a fabricar armas para los vecinos de un pequeño pueblo, pero llega un día en que debe convertirse en su protector.































Código:
General
Complete name                            : The Man With The Iron Fists (2012) UNRATED m-720p BDRip Dual Latino-Inglés [Subt. Esp-Ing].mkv
Format                                   : Matroska
Format version                           : Version 2
File size                                : 2.69 GiB
Duration                                 : 1h 47mn
Overall bit rate                         : 3 585 Kbps
Movie name                               : www.club-hd.com --> The Man With The Iron Fists (2012) UNRATED m-720p BDRip Dual Latino-Inglés [Subt. Esp-Ing]
Encoded date                             : UTC 2013-02-04 00:53:17
Writing application                      : mkvmerge v5.8.0 ('No Sleep / Pillow') built on Sep  2 2012 15:37:04
Writing library                          : libebml v1.2.3 + libmatroska v1.3.0

Video
ID                                       : 1
Format                                   : AVC
Format/Info                              : Advanced Video Codec
Format profile                           : High@L4.1
Format settings, CABAC                   : Yes
Format settings, ReFrames                : 9 frames
Codec ID                                 : V_MPEG4/ISO/AVC
Duration                                 : 1h 47mn
Bit rate                                 : 2 687 Kbps
Width                                    : 1 280 pixels
Height                                   : 534 pixels
Display aspect ratio                     : 2.40:1
Frame rate mode                          : Constant
Frame rate                               : 23.976 fps
Color space                              : YUV
Chroma subsampling                       : 4:2:0
Bit depth                                : 8 bits
Scan type                                : Progressive
Bits/(Pixel*Frame)                       : 0.164
Stream size                              : 1.96 GiB (73%)
Title                                    : www.club-hd.com --> The Man With The Iron Fists (2012) UNRATED m-720p BDRip Dual Latino-Inglés [Subt. Esp-Ing]
Writing library                          : x264 core 129 r2245 bc13772
Encoding settings                        : cabac=1 / ref=9 / deblock=1:-2:-2 / analyse=0x3:0x113 / me=umh / subme=10 / psy=1 / psy_rd=1.00:0.00 / mixed_ref=1 / me_range=16 / chroma_me=1 / trellis=2 / 8x8dct=1 / cqm=0 / deadzone=21,11 / fast_pskip=1 / chroma_qp_offset=-2 / threads=12 / lookahead_threads=2 / sliced_threads=0 / nr=0 / decimate=1 / interlaced=0 / bluray_compat=0 / constrained_intra=0 / bframes=3 / b_pyramid=2 / b_adapt=1 / b_bias=0 / direct=1 / weightb=1 / open_gop=0 / weightp=2 / keyint=250 / keyint_min=23 / scenecut=40 / intra_refresh=0 / rc=2pass / mbtree=0 / bitrate=2687 / ratetol=1.0 / qcomp=0.60 / qpmin=0 / qpmax=69 / qpstep=4 / cplxblur=20.0 / qblur=0.5 / ip_ratio=1.40 / pb_ratio=1.30 / aq=1:0.80
Language                                 : English
Default                                  : Yes
Forced                                   : No

Audio #1
ID                                       : 2
Format                                   : AC-3
Format/Info                              : Audio Coding 3
Mode extension                           : CM (complete main)
Format settings, Endianness              : Big
Codec ID                                 : A_AC3
Duration                                 : 1h 47mn
Bit rate mode                            : Constant
Bit rate                                 : 448 Kbps
Channel(s)                               : 6 channels
Channel positions                        : Front: L C R, Side: L R, LFE
Sampling rate                            : 48.0 KHz
Bit depth                                : 16 bits
Compression mode                         : Lossy
Stream size                              : 344 MiB (12%)
Title                                    : The Man With The Iron Fists (2012) UNRATED - Español Latino AC3 5.1
Language                                 : Spanish
Default                                  : Yes
Forced                                   : No

Audio #2
ID                                       : 3
Format                                   : AC-3
Format/Info                              : Audio Coding 3
Mode extension                           : CM (complete main)
Format settings, Endianness              : Big
Codec ID                                 : A_AC3
Duration                                 : 1h 47mn
Bit rate mode                            : Constant
Bit rate                                 : 448 Kbps
Channel(s)                               : 6 channels
Channel positions                        : Front: L C R, Side: L R, LFE
Sampling rate                            : 48.0 KHz
Bit depth                                : 16 bits
Compression mode                         : Lossy
Stream size                              : 344 MiB (12%)
Title                                    : The Man With The Iron Fists (2012) UNRATED - Inglés AC3 5.1
Language                                 : English
Default                                  : No
Forced                                   : No

Text #1
ID                                       : 4
Format                                   : UTF-8
Codec ID                                 : S_TEXT/UTF8
Codec ID/Info                            : UTF-8 Plain Text
Title                                    : Subtítulos Español Forzados
Language                                 : Spanish
Default                                  : Yes
Forced                                   : No

Text #2
ID                                       : 5
Format                                   : UTF-8
Codec ID                                 : S_TEXT/UTF8
Codec ID/Info                            : UTF-8 Plain Text
Title                                    : Subtítulos Español
Language                                 : Spanish
Default                                  : No
Forced                                   : No

Text #3
ID                                       : 6
Format                                   : UTF-8
Codec ID                                 : S_TEXT/UTF8
Codec ID/Info                            : UTF-8 Plain Text
Title                                    : Subtítulos Inglés
Language                                 : English
Default                                  : No
Forced                                   : No

Menu
00:00:00.000                             : en:Chapter 1
00:07:39.918                             : en:Chapter 2
00:12:13.066                             : en:Chapter 3
00:18:06.544                             : en:Chapter 4
00:21:39.340                             : en:Chapter 5
00:28:38.508                             : en:Chapter 6
00:32:09.427                             : en:Chapter 7
00:37:10.019                             : en:Chapter 8
00:44:16.612                             : en:Chapter 9
00:47:35.477                             : en:Chapter 10
00:53:55.691                             : en:Chapter 11
01:01:18.633                             : en:Chapter 12
01:09:47.308                             : en:Chapter 13
01:14:37.431                             : en:Chapter 14
01:21:28.508                             : en:Chapter 15
01:24:37.739                             : en:Chapter 16
01:30:41.394                             : en:Chapter 17
01:33:44.994                             : en:Chapter 18
01:37:31.637                             : en:Chapter 19
01:41:11.232                             : en:Chapter 20




Nota: Si en algún momento les llega a molestar cuando se mesclan los subtítulos en Inglés que vienen pegados por defecto en esta película, con los subs en Español o forzados, les damos como una posible solución ésto:

Solucón: Si usan el reproductor VLC Media Player (el cual recomendamos fuertemente en Club-HD), sigan los siguientes pasos para arreglar este inconveniente:

Primero le dan play a la película >> Click en el botón secundario del Mouse >> Apunten en "Herramientas" >> Y elijan del Menu que les aparecerá "Preferencias" >> Luego eligen el cuarto icono que es "Subtítulos y OSD" >> Y entre todas las opciones que les va a aparecer, sólo le cambian donde dice "Color de texto predeterminado" lo ponen en color Amarillo. Y la otra cosa que deben cambiar es la que dice "Anadir un fondo" aqui sólo marcan la casilla que está vacia. Terminan la operación dandole click en "Guardar"

Y eso es todo.
i-m_so_happy











Enlaces de Mega y Fireload solo disponibles para Miembros VIP

Compra tu Membresía VIP y apoya a Club-HD!

ATENCIÓN! Tenemos TODO el material de Club-HD disponible por Mega y Fireload, enlaces 100% activos y online hasta la fecha

Llévate tus cuentas Mega PRO II gratis con tu membresía VIP!
Todos los posts vivos con links de Mega y Fireload.
Todo el material de Club-HD desbloqueado y sin publicidad.

Click Aquí para más información.



Enlaces de Mega y Fireload solo disponibles para Miembros VIP

Compra tu Membresía VIP y apoya a Club-HD!

ATENCIÓN! Tenemos TODO el material de Club-HD disponible por Mega y Fireload, enlaces 100% activos y online hasta la fecha

Llévate tus cuentas Mega PRO II gratis con tu membresía VIP!
Todos los posts vivos con links de Mega y Fireload.
Todo el material de Club-HD desbloqueado y sin publicidad.

Click Aquí para más información.



Para ver este contenido oculto, debes dar click en una de las siguientes reacciones : Like Like, Love Love, Haha Haha, Wow Wow, Sad Sad, Angry Angry

 
Última edición por un moderador:

Mate78

Ladron de mi cerebro
Miembro del Staff
Súper Moderador
Registro
27 Ago 2012
Mensajes
1.235
Reacciones
918
Puntos
113

Reputation:

Tu si sabes de esto PICHON . muchas gracias !!!!:dplgar:
 

elcansado

Active member
Registro
28 Ago 2012
Mensajes
635
Reacciones
199
Puntos
43
Ubicación
Salta, Argentina

Reputation:

Gracias, descargando. Para comprar letitbit despues de hacer clic en el baner a quien le tengo que comprar ( aparecen muchos) Soy de argentina. Saludos
 

Bankai

Active member
Uploader
Colaborador
Registro
28 Ago 2012
Mensajes
733
Reacciones
48
Puntos
28

Reputation:

gracias hermano
 

Maestro Revolver

Well-known member
Miembro del Staff
Administrador
Registro
9 Ago 2012
Mensajes
3.569
Reacciones
59.354
Puntos
113

Reputation:

Gracias, descargando. Para comprar letitbit despues de hacer clic en el baner a quien le tengo que comprar ( aparecen muchos) Soy de argentina. Saludos

En la imagen de abajo las opciones marcadas con ROJO, sms, tarjeta de credito , webMoney son las opciones de comprar premium de letitbit. Las otras opciones ya son venta de terseros :plgrsa:

 

Usuarios Que Están Viendo Este Tema (Total: 1, Miembros: 0, Invitados: 1)

Arriba