The Mortal Instruments: City of Bones (2013) 720p BDRip Audio Inglés [Subt. Esp] (Fantástico. Aventuras. Romance)

Maestro Revolver

Well-known member
Miembro del Staff
Administrador
Registro
9 Ago 2012
Mensajes
3.567








TÍTULO ORIGINAL: The Mortal Instruments: City of Bones
AÑO: 2013
DURACIÓN: 130 min.
PAÍS: USA
DIRECTOR: Harald Zwart
GUIÓN: Jessica Postigo (Novela: Cassandra Clare)
REPARTO: Lily Collins, Lena Headey, Jonathan Rhys Meyers, Robert Sheehan, Jamie Campbell Bower, Jared Harris, Kevin Zegers, Aidan Turner, Kevin Durand, Jemima West, CCH Pounder, Robert Maillet, Godfrey Gao, Stephen R. Hart, Elyas M'Barek, Chad Connell, Harry Van Gorkum, Jonathan Seinen, Chris Ratz
PRODUCTORA: Coproducción EEUU-Alemania; Constantin Film Produktion / Sony Pictures Entertainment (SPE) / Screen Gems / Unique Features
GÉNERO: Fantástico. Aventuras. Romance. Drama | Adolescencia. Vampiros. Hombres lobo. Magia
: http://www.imdb.com/title/tt1538403/






Clary Fray (Lily Collins) es una típica adolescente de Brooklyn que una noche conoce a Jace, un chico misterioso con multitud de tatuajes, que resulta ser un ángel guerrero que ejerce como cazador de sombras. Cuando raptan a la madre de Clary (Lena Headey), la chica espera que Jace la ayude a liberarla. Después de entrar en un portal dorado, Clary se ve transportada a través del tiempo y del espacio, descubriendo algo sorprendente sobre sí misma.
























La pelicula NO tiene ninguna marca... solo colocamos el nombre de esta web en las capturas






Código:
General
Format                                   : Matroska
Format version                           : Version 2
File size                                : 3.08 GiB
Duration                                 : 2h 10mn
Overall bit rate                         : 3 381 Kbps
Movie name                               : www.club-hd.com
Encoded date                             : UTC 2013-11-20 21:53:03
Writing application                      : mkvmerge v5.7.0 ('The Whirlwind') built on Jul  8 2012 20:08:51
Writing library                          : libebml v1.2.3 + libmatroska v1.3.0

Video
ID                                       : 1
Format                                   : AVC
Format/Info                              : Advanced Video Codec
Format profile                           : High@L4.1
Format settings, CABAC                   : Yes
Format settings, ReFrames                : 6 frames
Codec ID                                 : V_MPEG4/ISO/AVC
Duration                                 : 2h 10mn
Bit rate                                 : 2 674 Kbps
Width                                    : 1 280 pixels
Height                                   : 534 pixels
Display aspect ratio                     : 2.40:1
Frame rate mode                          : Constant
Frame rate                               : 23.976 fps
Color space                              : YUV
Chroma subsampling                       : 4:2:0
Bit depth                                : 8 bits
Scan type                                : Progressive
Bits/(Pixel*Frame)                       : 0.163
Stream size                              : 2.43 GiB (79%)
Title                                    : www.club-hd.com
Writing library                          : x264 core 133 r2334 a3ac64b
Language                                 : English
Default                                  : Yes
Forced                                   : No

Audio
ID                                       : 2
Format                                   : AC-3
Format/Info                              : Audio Coding 3
Mode extension                           : CM (complete main)
Format settings, Endianness              : Big
Codec ID                                 : A_AC3
Duration                                 : 2h 10mn
Bit rate mode                            : Constant
Bit rate                                 : 640 Kbps
Channel(s)                               : 6 channels
Channel positions                        : Front: L C R, Side: L R, LFE
Sampling rate                            : 48.0 KHz
Bit depth                                : 16 bits
Compression mode                         : Lossy
Stream size                              : 596 MiB (19%)
Title                                    : www.club-hd.com
Language                                 : English
Default                                  : Yes
Forced                                   : No

Text
ID                                       : 3
Format                                   : UTF-8
Codec ID                                 : S_TEXT/UTF8
Codec ID/Info                            : UTF-8 Plain Text
Title                                    : www.club-hd.com
Language                                 : Spanish
Default                                  : Yes
Forced                                   : No

Menu
00:00:00.000                             : en:Chapter 1
00:08:04.609                             : en:Chapter 2
00:15:02.359                             : en:Chapter 3
00:22:18.378                             : en:Chapter 4
00:29:46.034                             : en:Chapter 5
00:38:43.070                             : en:Chapter 6
00:44:12.858                             : en:Chapter 7
00:49:45.232                             : en:Chapter 8
00:59:47.667                             : en:Chapter 9
01:06:47.294                             : en:Chapter 10
01:15:36.865                             : en:Chapter 11
01:22:36.034                             : en:Chapter 12
01:30:04.148                             : en:Chapter 13
01:37:07.571                             : en:Chapter 14
01:46:02.189                             : en:Chapter 15
01:54:13.012                             : en:Chapter 16








Enlaces de Mega y Google Drive solo disponibles para Miembros VIP

Compra tu Membresía VIP y apoya a Club-HD!

ATENCIÓN! Tenemos TODO el material de Club-HD disponible por Mega y Google Drive, enlaces 100% activos y online hasta la fecha

Llévate tus cuentas Mega PRO III gratis con tu membresía VIP!
Todos los posts vivos con links de Mega y Google Drive.
Todo el material de Club-HD desbloqueado y sin publicidad.

Click Aquí para más información.



Para ver este contenido oculto, debes dar click en una de las siguientes reacciones : Like Like, Love Love, Haha Haha, Wow Wow, Sad Sad, Angry Angry




Para ver este contenido oculto, debes dar click en una de las siguientes reacciones : Like Like, Love Love, Haha Haha, Wow Wow, Sad Sad, Angry Angry
 
Última edición por un moderador:

darkzeraphan

New member
Registro
31 Ago 2012
Mensajes
604
Gracias estimados, no tiene muy buenos comentarios esta película, pero tenemos que tener nuestras propias opiniones.
 

Usuarios Que Están Viendo Este Tema (Total: 1, Miembros: 0, Invitados: 1)

Quién Leyó Este Tema (Total Miembros: 3)

Arriba