• Este aviso va dirigido a todos los nuevos miembros recien llegados a Club-HD. Les recordamos que la direccion URL de este sitio web es , asi que deben acceder únicamente por esta URL. Sean todos bienvenidos al Club!

The Patriot (2000) THEATRICAL 2160p 4k UHD HDR Dual Latino-Inglés [Subt. Esp] (Aventuras. Bélico)

Brady

Moderador
Miembro del Staff
Moderador
Uploader
Registrado
1 Jun 2016
Mensajes
2,589
Puntos de reacción
40,292
Puntos
113
Edad
24






Título Original: The Patriot
Año: 2000
Duración: 165 min.
País:
United States
Director: Roland Emmerich
Guion: Robert Rodat
Reparto: Mel Gibson, Heath Ledger, Joely Richardson, Jason Isaacs, Chris Cooper, Tchéky Karyo, Rene Auberjonois, Tom Wilkinson, Lisa Brenner, Gregory Smith, Logan Lerman, Donal Logue, Leon Rippy, Adam Baldwin, Jay Arlen Jones, Joey D. Vieira, Mika Boorem, Skye McCole Bartusiak, Trevor Morgan, Mary Jo Deschanel, Peter Woodward, Grahame Wood, Beatrice Bush, Hank Stone, Kirk Fox, Jack Moore, Mark Twogood, Shannon Eubanks, Bill Roberson, Charles Black, Andy Stahl, Kristian Truelsen, Kanin Howell, Mark Jeffrey Miller, Zach Hanner, Dara Coleman, Randell Haynes, John Storey, Greg Good, John Curran, John Bennes, Roy McCrerey, Gil Johnson, Scott Miles
Productora: Mutual Film Company / Centropolis Entertainment / Global Entertainment Productions GmbH & Company Medien KG. Distribuida por Columbia Pictures
Género: Aventuras. Bélico. Drama | Cine épico. Guerra de Independencia Americana. Siglo XVIII​



Año 1776, en plena guerra de Independencia entre los colonos de Nueva Inglaterra y las tropas del rey británico Jorge III. En Carolina del Sur, el viudo Benjamin Martin (Mel Gibson), heroico soldado en Francia y en la India, renuncia a combatir para cuidar de sus siete hijos. Pero la pacífica vida de la familia Martin se ve alterada cuando Gabriel (Heath Ledger), el hijo mayor, se alista en el ejército; mientras tanto su padre se esfuerza por sacar adelante a la prole. Sin embargo, los británicos, al mando del cruel coronel Tavington (Jason Isaacs), llegarán hasta las puertas de su casa poniendo en peligro a toda la familia.




Datos Técnicos
Video:
MPEGH HEVC / 2160p / High Profile 5.1 / 29.2 mbps

Audio:
Español Latino / AC3 5.1 / 448 kbps / 48kHz / Bluray 4k
Inglés / TrueHD/Atmos 7.1 / 5062 kbps / 48kHz / Bluray 4k
Inglés / AC3 5.1 / 640 kbps / 48kHz / Bluray 4k

Subs:
Español Latino / SubRip / Bluray 4k
Español Latino Forzados / SubRip / Bluray 4k
Español Latino / Sup / Bluray 4k
Español Latino Forzados / Sup / Bluray 4k
Inglés / Sup / Bluray 4k

Código:
General
Unique ID                                : 117448421373327334870317798325957653467 (0x585BBE40057F0341DD638CEA0A8373DB)
Format                                   : Matroska
Format version                           : Version 4
File size                                : 40.8 GiB
Duration                                 : 2 h 44 min
Overall bit rate mode                    : Variable
Overall bit rate                         : 35.5 Mb/s
Encoded date                             : UTC 2020-02-09 16:34:33
Writing application                      : mkvmerge v43.0.0 ('The Quartermaster') 64-bit
Writing library                          : libebml v1.3.10   libmatroska v1.5.2
Uploader                                 : Brady
Web                                      : www.club-hd.com

Video
ID                                       : 1
Format                                   : HEVC
Format/Info                              : High Efficiency Video Coding
Format profile                           : Main 10@L5.1@High
HDR format                               : SMPTE ST 2086, HDR10 compatible
Codec ID                                 : V_MPEGH/ISO/HEVC
Duration                                 : 2 h 44 min
Bit rate                                 : 29.2 Mb/s
Width                                    : 3 840 pixels
Height                                   : 1 600 pixels
Display aspect ratio                     : 2.40:1
Frame rate mode                          : Constant
Frame rate                               : 23.976 (24000/1001) FPS
Color space                              : YUV
Chroma subsampling                       : 4:2:0 (Type 2)
Bit depth                                : 10 bits
Bits/(Pixel*Frame)                       : 0.198
Stream size                              : 33.6 GiB (82%)
Writing library                          : x265 2.8 10-703eade86b53:[Windows][MSVC 1914][64 bit] 10bit
Encoding settings                        : cpuid=1111039 / frame-threads=5 / numa-pools=36 / wpp / no-pmode / no-pme / no-psnr / no-ssim / log-level=2 / input-csp=1 / input-res=3840x1600 / interlace=0 / total-frames=237048 / level-idc=51 / high-tier=1 / uhd-bd=0 / ref=4 / no-allow-non-conformance / repeat-headers / annexb / aud / hrd / info / hash=0 / no-temporal-layers / no-open-gop / min-keyint=1 / keyint=24 / gop-lookahead=0 / bframes=4 / b-adapt=2 / b-pyramid / bframe-bias=0 / rc-lookahead=25 / lookahead-slices=4 / scenecut=40 / radl=0 / no-intra-refresh / ctu=64 / min-cu-size=8 / rect / no-amp / max-tu-size=32 / tu-inter-depth=1 / tu-intra-depth=1 / limit-tu=0 / rdoq-level=2 / dynamic-rd=0.00 / no-ssim-rd / signhide / no-tskip / nr-intra=0 / nr-inter=0 / no-constrained-intra / no-strong-intra-smoothing / max-merge=3 / limit-refs=3 / limit-modes / me=3 / subme=3 / merange=57 / temporal-mvp / weightp / no-weightb / no-analyze-src-pics / deblock=-3:-3 / no-sao / no-sao-non-deblock / rd=4 / no-early-skip / rskip / no-fast-intra / no-tskip-fast / no-cu-lossless / no-b-intra / no-splitrd-skip / rdpenalty=0 / psy-rd=2.00 / psy-rdoq=1.00 / no-rd-refine / no-lossless / cbqpoffs=0 / crqpoffs=0 / rc=crf / crf=17.0 / qcomp=0.60 / qpstep=4 / stats-write=0 / stats-read=0 / vbv-maxrate=160000 / vbv-bufsize=160000 / vbv-init=0.9 / crf-max=0.0 / crf-min=0.0 / ipratio=1.40 / pbratio=1.30 / aq-mode=1 / aq-strength=1.00 / cutree / zone-count=0 / no-strict-cbr / qg-size=32 / no-rc-grain / qpmax=69 / qpmin=0 / no-const-vbv / sar=1 / overscan=0 / videoformat=5 / range=0 / colorprim=9 / transfer=16 / colormatrix=9 / chromaloc=1 / chromaloc-top=2 / chromaloc-bottom=2 / display-window=0 / master-display=G(13250,34500)B(7500,3000)R(34000,16000)WP(15635,16450)L(40000000,50) / max-cll=10000,1110 / min-luma=0 / max-luma=1023 / log2-max-poc-lsb=8 / vui-timing-info / vui-hrd-info / slices=1 / no-opt-qp-pps / no-opt-ref-list-length-pps / no-multi-pass-opt-rps / scenecut-bias=0.05 / no-opt-cu-delta-qp / no-aq-motion / hdr / hdr-opt / no-dhdr10-opt / no-idr-recovery-sei / analysis-reuse-level=5 / scale-factor=0 / refine-intra=0 / refine-inter=0 / refine-mv=0 / no-limit-sao / ctu-info=0 / no-lowpass-dct / refine-mv-type=0 / copy-pic=1 / max-ausize-factor=1.0 / no-dynamic-refine / no-single-sei
Language                                 : English
Default                                  : Yes
Forced                                   : No
Color range                              : Limited
Color primaries                          : BT.2020
Transfer characteristics                 : PQ
Matrix coefficients                      : BT.2020 non-constant
Mastering display color primaries        : Display P3
Mastering display luminance              : min: 0.0050 cd/m2, max: 4000 cd/m2
Maximum Content Light Level              : 10000 cd/m2
Maximum Frame-Average Light Level        : 1110 cd/m2

Audio #1
ID                                       : 2
Format                                   : AC-3
Format/Info                              : Audio Coding 3
Commercial name                          : Dolby Digital
Codec ID                                 : A_AC3
Duration                                 : 2 h 44 min
Bit rate mode                            : Constant
Bit rate                                 : 448 kb/s
Channel(s)                               : 6 channels
Channel layout                           : L R C LFE Ls Rs
Sampling rate                            : 48.0 kHz
Frame rate                               : 31.250 FPS (1536 SPF)
Compression mode                         : Lossy
Stream size                              : 528 MiB (1%)
Title                                    : Latino
Language                                 : Spanish
Service kind                             : Complete Main
Default                                  : Yes
Forced                                   : No

Audio #2
ID                                       : 3
Format                                   : MLP FBA 16-ch
Format/Info                              : Meridian Lossless Packing FBA with 16-channel presentation
Commercial name                          : Dolby TrueHD with Dolby Atmos
Codec ID                                 : A_TRUEHD
Duration                                 : 2 h 44 min
Bit rate mode                            : Variable
Bit rate                                 : 5 062 kb/s
Maximum bit rate                         : 7 461 kb/s
Channel(s)                               : 8 channels
Channel layout                           : L R C LFE Ls Rs Lb Rb
Sampling rate                            : 48.0 kHz
Frame rate                               : 1 200.000 FPS (40 SPF)
Compression mode                         : Lossless
Stream size                              : 5.83 GiB (14%)
Title                                    : Ingles
Language                                 : English
Default                                  : No
Forced                                   : No
Number of dynamic objects                : 11
Bed channel count                        : 1 channel
Bed channel configuration                : LFE

Audio #3
ID                                       : 4
Format                                   : AC-3
Format/Info                              : Audio Coding 3
Commercial name                          : Dolby Digital
Codec ID                                 : A_AC3
Duration                                 : 2 h 44 min
Bit rate mode                            : Constant
Bit rate                                 : 640 kb/s
Channel(s)                               : 6 channels
Channel layout                           : L R C LFE Ls Rs
Sampling rate                            : 48.0 kHz
Frame rate                               : 31.250 FPS (1536 SPF)
Compression mode                         : Lossy
Stream size                              : 754 MiB (2%)
Title                                    : Ingles
Language                                 : English
Service kind                             : Complete Main
Default                                  : No
Forced                                   : No

Text #1
ID                                       : 5
Format                                   : UTF-8
Codec ID                                 : S_TEXT/UTF8
Codec ID/Info                            : UTF-8 Plain Text
Duration                                 : 2 h 36 min
Bit rate                                 : 34 b/s
Count of elements                        : 1312
Stream size                              : 39.8 KiB (0%)
Title                                    : Latino
Language                                 : Spanish
Default                                  : No
Forced                                   : No

Text #2
ID                                       : 6
Format                                   : UTF-8
Codec ID                                 : S_TEXT/UTF8
Codec ID/Info                            : UTF-8 Plain Text
Duration                                 : 1 h 2 min
Bit rate                                 : 0 b/s
Count of elements                        : 3
Stream size                              : 113 Bytes (0%)
Title                                    : Forzados
Language                                 : Spanish
Default                                  : Yes
Forced                                   : No

Text #3
ID                                       : 7
Format                                   : PGS
Muxing mode                              : zlib
Codec ID                                 : S_HDMV/PGS
Codec ID/Info                            : Picture based subtitle format used on BDs/HD-DVDs
Duration                                 : 2 h 36 min
Bit rate                                 : 20.0 kb/s
Count of elements                        : 2624
Stream size                              : 22.3 MiB (0%)
Title                                    : Latino
Language                                 : Spanish
Default                                  : No
Forced                                   : No

Text #4
ID                                       : 8
Format                                   : PGS
Muxing mode                              : zlib
Codec ID                                 : S_HDMV/PGS
Codec ID/Info                            : Picture based subtitle format used on BDs/HD-DVDs
Duration                                 : 1 h 2 min
Bit rate                                 : 129 b/s
Count of elements                        : 6
Stream size                              : 59.2 KiB (0%)
Title                                    : Forzados
Language                                 : Spanish
Default                                  : No
Forced                                   : No

Text #5
ID                                       : 9
Format                                   : PGS
Muxing mode                              : zlib
Codec ID                                 : S_HDMV/PGS
Codec ID/Info                            : Picture based subtitle format used on BDs/HD-DVDs
Duration                                 : 2 h 37 min
Bit rate                                 : 25.3 kb/s
Count of elements                        : 3447
Stream size                              : 28.4 MiB (0%)
Title                                    : Ingles
Language                                 : English
Default                                  : No
Forced                                   : No













Links Intercambiables​



Enlaces de Mega y Google Drive solo disponibles para Miembros VIP

Compra tu Membresía VIP y apoya a Club-HD!

ATENCIÓN! Tenemos TODO el material de Club-HD disponible por Mega y Google Drive, enlaces 100% activos y online hasta la fecha

Llévate tus cuentas Mega PRO II gratis con tu membresía VIP!
Todos los posts vivos con links de Mega y Google Drive.
Todo el material de Club-HD desbloqueado y sin publicidad.

Click Aquí para más información.

Enlaces de Mega y Google Drive solo disponibles para Miembros VIP

Compra tu Membresía VIP y apoya a Club-HD!

ATENCIÓN! Tenemos TODO el material de Club-HD disponible por Mega y Google Drive, enlaces 100% activos y online hasta la fecha

Llévate tus cuentas Mega PRO II gratis con tu membresía VIP!
Todos los posts vivos con links de Mega y Google Drive.
Todo el material de Club-HD desbloqueado y sin publicidad.

Click Aquí para más información.

Para ver este contenido oculto, debes dar click en una de las siguientes reacciones: Like Like, Love Love, Haha Haha, Wow Wow, Sad Sad, Angry Angry

Para ver este contenido oculto, debes dar click en una de las siguientes reacciones: Like Like, Love Love, Haha Haha, Wow Wow, Sad Sad, Angry Angry

Para ver este contenido oculto, debes dar click en una de las siguientes reacciones: Like Like, Love Love, Haha Haha, Wow Wow, Sad Sad, Angry Angry


Código:
www.club-hd.com
 
Última edición por un moderador:

cripp

Well-known member
Registrado
27 Ago 2012
Mensajes
8,117
Puntos de reacción
474
Puntos
113
Gracias por compartir
 

kempes54

Well-known member
Miembro VIP
Registrado
28 Ago 2012
Mensajes
727
Puntos de reacción
301
Puntos
63
Gracias Brady por este Peliculon!
 

crack20

𝙀𝙡 𝙐𝙡𝙩𝙧𝙖 𝙄𝙣𝙨𝙩𝙞𝙣𝙩𝙤
Colaborador
Registrado
1 Jul 2015
Mensajes
664
Puntos de reacción
3,247
Puntos
93
Edad
27
Ubicación
惑星ベジータ
Sitio web
latinouhd.com
Película menospreciada por muchos, Obra Maestra para mi, muchas gracias por esta versión
ya tengo el BD de la extended pero es bueno tenerla en 4K
😎
 

luchinpc

Member
Registrado
30 Ago 2012
Mensajes
448
Puntos de reacción
22
Puntos
18
Edad
37
exlente peli lo descargare para verlo este fin de semana
 

Usuarios Que Están Viendo Este Tema (Total: 1, Miembros: 0, Invitados: 1)

Quien Leyó Este Tema (Total Miembros: 1)

Arriba