Series actualizadas The Peripheral S01 (2022) 1080p AMZN WEB-DL Latino-Inglés [Sub.Esp] (Ciencia Ficción. Thriller)

LuchoO

責任者
Miembro del Staff
Moderador
Uploader
Miembro VIP
Registro
15 Ago 2015
Mensajes
1.126
Soluciones
1



[prebreak][/prebreak]







Año 2032. Flynne Fisher (Chloe Grace Moretz), su hermano veterano de la Marina, Burton (Jack Reynor), y su madre enferma viven en un pequeño pueblo de las montañas Blue Ridge. Los hermanos ganan un dinero extra jugando a las simulaciones ("Sims") compartiendo el avatar de Burton, "compitiendo" por los usuarios que pagan mucho para llegar a superar los exigentes niveles del juego. Cuando a Burton se le ofrece la oportunidad de probar la versión beta de un nuevo Sim, es Flynne quien acaba jugando, haciéndose pasar por su hermano, pero pronto ella se da cuenta de que el juego es más real de lo que jamás podría haber imaginado: el Londres que está explorando existe realmente en el futuro, en el año 2099, y un hombre, Wilf (Gary Carr), parece ser la clave para desvelar el misterio. Pero lo que Flynne descubre en el Instituto de Investigación la pone a ella y a su familia en grave peligro.




















General
Complete name : The.Peripheral.S01E01.AMZN.WEB-DL.1080p.DDP5.1.Lat.Ing.mkv
Format : Matroska
Format version : Version 4
File size : 5.06 GiB
Duration : 1 h 12 min
Overall bit rate : 9 957 kb/s
Movie name : [LuchoO] The Peripheral S01E01 - Pilot [1080p].mkv
Encoded date : UTC 2022-10-21 12:30:18
Writing application : mkvmerge v50.0.0 ('Awakenings') 64-bit
Writing library : libebml v1.4.0 + libmatroska v1.6.2

Video
ID : 1
Format : AVC
Format/Info : Advanced Video Codec
Format profile : High@L4
Format settings : CABAC / 4 Ref Frames
Format settings, CABAC : Yes
Format settings, RefFrames : 4 frames
Codec ID : V_MPEG4/ISO/AVC
Duration : 1 h 12 min
Bit rate mode : Constant
Bit rate : 8 674 kb/s
Nominal bit rate : 10 000 kb/s
Width : 1 920 pixels
Height : 960 pixels
Display aspect ratio : 2.000
Frame rate mode : Constant
Frame rate : 23.976 (24000/1001) FPS
Color space : YUV
Chroma subsampling : 4:2:0
Bit depth : 8 bits
Scan type : Progressive
Bits/(Pixel*Frame) : 0.196
Stream size : 4.41 GiB (87%)
Default : Yes
Forced : No
Color range : Limited
Color primaries : BT.709
Transfer characteristics : BT.709
Matrix coefficients : BT.709

Audio #1
ID : 2
Format : E-AC-3
Format/Info : Enhanced AC-3
Commercial name : Dolby Digital Plus
Codec ID : A_EAC3
Duration : 1 h 12 min
Bit rate mode : Constant
Bit rate : 640 kb/s
Channel(s) : 6 channels
Channel layout : L R C LFE Ls Rs
Sampling rate : 48.0 kHz
Frame rate : 31.250 FPS (1536 SPF)
Compression mode : Lossy
Stream size : 333 MiB (6%)
Language : Spanish
Service kind : Complete Main
Default : Yes
Forced : No

Audio #2
ID : 3
Format : E-AC-3
Format/Info : Enhanced AC-3
Commercial name : Dolby Digital Plus
Codec ID : A_EAC3
Duration : 1 h 12 min
Bit rate mode : Constant
Bit rate : 640 kb/s
Channel(s) : 6 channels
Channel layout : L R C LFE Ls Rs
Sampling rate : 48.0 kHz
Frame rate : 31.250 FPS (1536 SPF)
Compression mode : Lossy
Stream size : 333 MiB (6%)
Language : English
Service kind : Complete Main
Default : No
Forced : No

Text #1
ID : 4
Format : UTF-8
Codec ID : S_TEXT/UTF8
Codec ID/Info : UTF-8 Plain Text
Duration : 1 h 7 min
Bit rate : 0 b/s
Count of elements : 16
Stream size : 349 Bytes (0%)
Title : Forced
Language : Spanish
Default : Yes
Forced : No

Text #2
ID : 5
Format : UTF-8
Codec ID : S_TEXT/UTF8
Codec ID/Info : UTF-8 Plain Text
Duration : 1 h 8 min
Bit rate : 43 b/s
Count of elements : 711
Stream size : 21.8 KiB (0%)
Title : Spanish (Latin America)
Language : Spanish
Default : No
Forced : No

Text #3
ID : 6
Format : UTF-8
Codec ID : S_TEXT/UTF8
Codec ID/Info : UTF-8 Plain Text
Duration : 1 h 7 min
Bit rate : 55 b/s
Count of elements : 946
Stream size : 27.2 KiB (0%)
Language : English
Default : No
Forced : No

Text #4
ID : 7
Format : UTF-8
Codec ID : S_TEXT/UTF8
Codec ID/Info : UTF-8 Plain Text
Duration : 1 h 9 min
Bit rate : 61 b/s
Count of elements : 1145
Stream size : 31.6 KiB (0%)
Title : SDH
Language : English
Default : No
Forced : No



★Todos los links son Intercambiables★



Enlaces de Mega y Google Drive solo disponibles para Miembros VIP

Compra tu Membresía VIP y apoya a Club-HD!

ATENCIÓN! Tenemos TODO el material de Club-HD disponible por Mega y Google Drive, enlaces 100% activos y online hasta la fecha

Llévate tus cuentas Mega PRO III gratis con tu membresía VIP!
Todos los posts vivos con links de Mega y Google Drive.
Todo el material de Club-HD desbloqueado y sin publicidad.

Click Aquí para más información.


Enlaces de Mega y Google Drive solo disponibles para Miembros VIP

Compra tu Membresía VIP y apoya a Club-HD!

ATENCIÓN! Tenemos TODO el material de Club-HD disponible por Mega y Google Drive, enlaces 100% activos y online hasta la fecha

Llévate tus cuentas Mega PRO III gratis con tu membresía VIP!
Todos los posts vivos con links de Mega y Google Drive.
Todo el material de Club-HD desbloqueado y sin publicidad.

Click Aquí para más información.


Para ver este contenido oculto, debes dar click en una de las siguientes reacciones : Like Like, Love Love, Haha Haha, Wow Wow, Sad Sad, Angry Angry


Para ver este contenido oculto, debes dar click en una de las siguientes reacciones : Like Like, Love Love, Haha Haha, Wow Wow, Sad Sad, Angry Angry
★ CONTRASEÑA ★
www.club-hd.com


"Solo Audio Latino"
 
Última edición:

Max

Admin
Miembro del Staff
Administrador
Miembro VIP
Registro
8 Ago 2012
Mensajes
6.072
Ubicación
Disco C
Episodio 5 ya agregado en Mega patoch! :ok:
 

Usuarios Que Están Viendo Este Tema (Total: 1, Miembros: 0, Invitados: 1)

Arriba