The Punisher (2004) m-720p BDRip Dual Latino-Inglés [Subt. Esp] (Acción. Thriller)

Maestro Revolver

Well-known member
Miembro del Staff
Administrador
Registro
9 Ago 2012
Mensajes
3.567








TÍTULO ORIGINAL: The Punisher
AÑO: 2004
DURACIÓN: 124 min.
PAÍS: USA
DIRECTOR: Jonathan Hensleigh
GUIÓN: Jonathan Hensleigh, Michael France, Michael Tolkin (Cómic)
REPARTO: Thomas Jane, John Travolta, Rebecca Romijn-Stamos, Laura Elena Harring, Samantha Mathis, Roy Scheider, Will Patton, Ben Foster, John Pinette, Mark Collie, Kevin Nash
PRODUCTORA: Artisan Entertainment / Marvel Studios
GÉNERO: Acción. Thriller | Crimen. Venganza. Cómic. Marvel Comics
: http://www.imdb.com/title/tt0330793/






Frank Castle (Thomas Jane), un agente secreto del FBI con un historial intachable, decide un día abandonar una profesión tan peligrosa para poder tener una vida familiar normal. Pero, precisamente entonces, su vida se hace añicos al cumplirse el peor de sus temores: su familia es asesinada como venganza por su último trabajo. Buscando castigar a los asesinos, al final encuentra lo que menos esperaba: la redención.
























La pelicula NO tiene ninguna marca... solo colocamos el nombre de esta web en las capturas






Código:
General
Format                                   : Matroska
Format version                           : Version 2
File size                                : 3.47 GiB
Duration                                 : 2h 3mn
Overall bit rate                         : 4 025 Kbps
Movie name                               : www.club-hd.com
Encoded date                             : UTC 2013-09-18 02:32:31
Writing application                      : mkvmerge v5.7.0 ('The Whirlwind') built on Jul  8 2012 20:08:51
Writing library                          : libebml v1.2.3 + libmatroska v1.3.0

Video
ID                                       : 1
Format                                   : AVC
Format/Info                              : Advanced Video Codec
Format profile                           : High@L4.0
Format settings, CABAC                   : Yes
Format settings, ReFrames                : 8 frames
Codec ID                                 : V_MPEG4/ISO/AVC
Duration                                 : 2h 3mn
Bit rate                                 : 3 000 Kbps
Width                                    : 1 280 pixels
Height                                   : 544 pixels
Display aspect ratio                     : 2.35:1
Frame rate mode                          : Constant
Frame rate                               : 23.976 fps
Color space                              : YUV
Chroma subsampling                       : 4:2:0
Bit depth                                : 8 bits
Scan type                                : Progressive
Bits/(Pixel*Frame)                       : 0.180
Stream size                              : 2.52 GiB (73%)
Title                                    : www.club-hd.com
Writing library                          : x264 core 120
Language                                 : English
Default                                  : Yes
Forced                                   : No
Color primaries                          : BT.709
Transfer characteristics                 : BT.709
Matrix coefficients                      : BT.709

Audio #1
ID                                       : 2
Format                                   : AC-3
Format/Info                              : Audio Coding 3
Mode extension                           : CM (complete main)
Format settings, Endianness              : Big
Codec ID                                 : A_AC3
Duration                                 : 2h 3mn
Bit rate mode                            : Constant
Bit rate                                 : 384 Kbps
Channel(s)                               : 6 channels
Channel positions                        : Front: L C R, Side: L R, LFE
Sampling rate                            : 48.0 KHz
Bit depth                                : 16 bits
Compression mode                         : Lossy
Delay relative to video                  : 1s 0ms
Stream size                              : 339 MiB (10%)
Title                                    : www.club-hd.com  >>  Latino
Language                                 : Spanish
Default                                  : Yes
Forced                                   : No

Audio #2
ID                                       : 3
Format                                   : AC-3
Format/Info                              : Audio Coding 3
Mode extension                           : CM (complete main)
Format settings, Endianness              : Big
Codec ID                                 : A_AC3
Duration                                 : 2h 3mn
Bit rate mode                            : Constant
Bit rate                                 : 640 Kbps
Channel(s)                               : 6 channels
Channel positions                        : Front: L C R, Side: L R, LFE
Sampling rate                            : 48.0 KHz
Bit depth                                : 16 bits
Compression mode                         : Lossy
Stream size                              : 565 MiB (16%)
Title                                    : www.club-hd.com  >>  Inglés
Language                                 : English
Default                                  : No
Forced                                   : No

Text #1
ID                                       : 4
Format                                   : UTF-8
Codec ID                                 : S_TEXT/UTF8
Codec ID/Info                            : UTF-8 Plain Text
Title                                    : Forzados
Language                                 : Spanish
Default                                  : Yes
Forced                                   : No

Text #2
ID                                       : 5
Format                                   : UTF-8
Codec ID                                 : S_TEXT/UTF8
Codec ID/Info                            : UTF-8 Plain Text
Language                                 : Spanish
Default                                  : No
Forced                                   : No

Menu #1
00:00:00.000                             : en:Chapter 1
00:07:07.052                             : en:Chapter 2
00:14:57.438                             : en:Chapter 3
00:22:23.926                             : en:Chapter 4
00:31:55.372                             : en:Chapter 5
00:38:29.557                             : en:Chapter 6
00:46:16.274                             : en:Chapter 7
00:54:10.873                             : en:Chapter 8
01:01:19.676                             : en:Chapter 9
01:08:20.305                             : en:Chapter 10
01:15:16.303                             : en:Chapter 11
01:22:47.379                             : en:Chapter 12
01:35:01.487                             : en:Chapter 13
01:40:39.367                             : en:Chapter 14
01:48:43.726                             : en:Chapter 15
01:55:42.978                             : en:Chapter 16

Menu #2
00:00:00.000                             : en:00:00:00.000
00:07:06.926                             : en:00:07:06.926
00:14:57.438                             : en:00:14:57.438
00:22:23.926                             : en:00:22:23.926
00:31:55.330                             : en:00:31:55.330
00:38:29.557                             : en:00:38:29.557
00:46:16.273                             : en:00:46:16.273
00:54:10.873                             : en:00:54:10.873
01:01:19.676                             : en:01:01:19.676
01:08:20.305                             : en:01:08:20.305
01:15:16.220                             : en:01:15:16.220
01:22:47.379                             : en:01:22:47.379
01:35:01.487                             : en:01:35:01.487
01:40:39.367                             : en:01:40:39.367
01:48:43.726                             : en:01:48:43.726
01:55:42.936                             : en:01:55:42.936








Enlaces de Mega y Google Drive solo disponibles para Miembros VIP

Compra tu Membresía VIP y apoya a Club-HD!

ATENCIÓN! Tenemos TODO el material de Club-HD disponible por Mega y Google Drive, enlaces 100% activos y online hasta la fecha

Llévate tus cuentas Mega PRO III gratis con tu membresía VIP!
Todos los posts vivos con links de Mega y Google Drive.
Todo el material de Club-HD desbloqueado y sin publicidad.

Click Aquí para más información.


Para ver este contenido oculto, debes dar click en una de las siguientes reacciones : Like Like, Love Love, Haha Haha, Wow Wow, Sad Sad, Angry Angry



 
Última edición por un moderador:

HemoAr

Dohko de Libra
Administrador
Uploader
Miembro VIP
Registro
9 Mar 2013
Mensajes
10.597
Ubicación
Rozan
Noooo puede ser :OHHH::OHHH: apenas acabo de agradecer al top 10 y mira nada mas. Que cosa mas hermosa, Gracias Master Revolver22 Eres fenomenal LXR_2LXR_2LXR_2. Saludos a LANINADULCE
 

Usuarios Que Están Viendo Este Tema (Total: 1, Miembros: 0, Invitados: 1)

Quién Leyó Este Tema (Total Miembros: 1)

Arriba