The Resident S01 (2018) 1080p STR WEB-DL Dual Latino-Inglés [Subt.Esp] (Drama médico)

Peacemaker

Well-known member
Miembro del Staff
Uploader
Registro
17 May 2018
Mensajes
1.504
Edad
32

Rep:






Un encantador y arrogante médico del Chastain Park Memorial Hospital abre los ojos a un residente idealista de primer año con la realidad de la vida hospitalaria, haciéndole notar que la práctica de la medicina es un negocio como cualquier otro.


MEDIAINFO
Código:
Format                      : Matroska
Format version              : Version 4
File size                   : 2.76 GiB
Duration                    : 43 min 59 s
Overall bit rate mode       : Variable
Overall bit rate            : 8 997 kb/s
Encoded date                : UTC 2022-01-19 12:43:47
Writing application         : mkvmerge v58.0.0 ('Supper's Ready') 32-bit
Writing library             : libebml v1.4.2 + libmatroska v1.6.4

Video
ID                          : 1
Format                      : AVC
Format/Info                 : Advanced Video Codec
Format profile              : High@L4
Format settings             : CABAC / 4 Ref Frames
Format settings, CABAC      : Yes
Format settings, Reference  : 4 frames
Codec ID                    : V_MPEG4/ISO/AVC
Duration                    : 43 min 59 s
Bit rate mode               : Variable
Bit rate                    : 8 480 kb/s
Maximum bit rate            : 12.7 Mb/s
Width                       : 1 920 pixels
Height                      : 1 080 pixels
Display aspect ratio        : 16:9
Frame rate mode             : Constant
Frame rate                  : 23.976 (24000/1001) FPS
Color space                 : YUV
Chroma subsampling          : 4:2:0
Bit depth                   : 8 bits
Scan type                   : Progressive
Bits/(Pixel*Frame)          : 0.171
Stream size                 : 2.61 GiB (94%)
Default                     : Yes
Forced                      : No
Color range                 : Limited
Color primaries             : BT.709
Transfer characteristics    : BT.709
Matrix coefficients         : BT.709

Audio #1
ID                          : 2
Format                      : E-AC-3
Format/Info                 : Enhanced AC-3
Commercial name             : Dolby Digital Plus
Codec ID                    : A_EAC3
Duration                    : 43 min 59 s
Bit rate mode               : Constant
Bit rate                    : 256 kb/s
Channel(s)                  : 6 channels
Channel layout              : L R C LFE Ls Rs
Sampling rate               : 48.0 kHz
Frame rate                  : 31.250 FPS (1536 SPF)
Compression mode            : Lossy
Stream size                 : 80.5 MiB (3%)
Title                       : Spanish
Language                    : Spanish
Service kind                : Complete Main
Default                     : No
Forced                      : No

Audio #2
ID                          : 3
Format                      : E-AC-3
Format/Info                 : Enhanced AC-3
Commercial name             : Dolby Digital Plus
Codec ID                    : A_EAC3
Duration                    : 43 min 59 s
Bit rate mode               : Constant
Bit rate                    : 256 kb/s
Channel(s)                  : 6 channels
Channel layout              : L R C LFE Ls Rs
Sampling rate               : 48.0 kHz
Frame rate                  : 31.250 FPS (1536 SPF)
Compression mode            : Lossy
Stream size                 : 80.5 MiB (3%)
Title                       : English
Language                    : English
Service kind                : Complete Main
Default                     : No
Forced                      : No

Text #1
ID                          : 4
Format                      : UTF-8
Codec ID                    : S_TEXT/UTF8
Codec ID/Info               : UTF-8 Plain Text
Duration                    : 35 min 43 s
Bit rate                    : 1 b/s
Count of elements           : 15
Stream size                 : 491 Bytes (0%)
Title                       : Forced
Language                    : Spanish
Default                     : No
Forced                      : Yes

Text #2
ID                          : 5
Format                      : UTF-8
Codec ID                    : S_TEXT/UTF8
Codec ID/Info               : UTF-8 Plain Text
Duration                    : 43 min 56 s
Bit rate                    : 80 b/s
Count of elements           : 729
Stream size                 : 26.0 KiB (0%)
Language                    : Spanish
Default                     : No
Forced                      : No

Text #3
ID                          : 6
Format                      : UTF-8
Codec ID                    : S_TEXT/UTF8
Codec ID/Info               : UTF-8 Plain Text
Duration                    : 3 s 86 ms
Bit rate                    : 80 b/s
Count of elements           : 1
Stream size                 : 31.0 Bytes (0%)
Title                       : Forced
Language                    : Spanish
Default                     : No
Forced                      : Yes

Text #4
ID                          : 7
Format                      : UTF-8
Codec ID                    : S_TEXT/UTF8
Codec ID/Info               : UTF-8 Plain Text
Duration                    : 43 min 56 s
Bit rate                    : 81 b/s
Count of elements           : 813
Stream size                 : 26.2 KiB (0%)
Language                    : Spanish
Default                     : No
Forced                      : No











Resolución de video: H264 1920x958 (AVC, High@L4)
Formato de audio: EAC3 256 kb/s 5.1 (Español latino), EAC3 256 kb/s 5.1 (Inglés)
Formato de subtítulos: SubRip (.srt) (Completos & Forzados)
Lista de audio: Latino e inglés
Fuente: Star+







Para ver este contenido oculto, debes dar click en una de las siguientes reacciones : Like Like, Love Love, Haha Haha, Wow Wow, Sad Sad, Angry Angry



Para ver este contenido oculto, debes dar click en una de las siguientes reacciones : Like Like, Love Love, Haha Haha, Wow Wow, Sad Sad, Angry Angry


Para ver este contenido oculto, debes dar click en una de las siguientes reacciones : Like Like, Love Love, Haha Haha, Wow Wow, Sad Sad, Angry Angry
 

Usuarios Que Están Viendo Este Tema (Total: 1, Miembros: 0, Invitados: 1)

Quién Leyó Este Tema (Total Miembros: 1)

Arriba