The Santa Clause 2 (2002) m-1080p Dual Latino-Inglés [Subt. Esp-Ing] (Infantil. Comedia)

Maestro Revolver

Well-known member
Miembro del Staff
Administrador
Registro
9 Ago 2012
Mensajes
3.569
Reacciones
59.366
Puntos
113

Reputation:


Aporte perdido por completo. Trataremos de resubirlo pronto.







TÍTULO ORIGINAL: The Santa Clause 2
AÑO: 2002
DURACIÓN: 105 min.
PAÍS: USA
DIRECTOR: Michael Lembeck
GUIÓN: Steve Rudnick, John Strauss, Leo Benvenuti, Ken Daurio, Ed Decter
REPARTO: Tim Allen, Judge Reinhold, Wendy Crewson, Elizabeth Mitchell, David Krumholtz, Eric Lloyd, Spencer Breslin, Liliana Mumy, Aisha Tyler
PRODUCTORA: Walt Disney Pictures
GÉNERO: Infantil. Comedia | Cine familiar. Navidad. Secuela
: http://www.imdb.com/title/tt0304669/






Las vacaciones comienzan el 1º de noviembre... y Santa comienza la búsqueda de la perfecta Sra. Claus. Scott Calvin (Tim Allen) ha sido Santa Claus durante los últimos ocho años y sus leales duendes lo consideran el mejor Santa de todos los tiempos. Pero Scott tiene problemas: su hijo Charlie ha caído en su lista de "traviesos" del año. El mismo Santa se está "desantando" misteriosamente. Y lo peor es que si Scott no se casa antes de la Nochebuena, ¡dejará de ser Santa para siempre! (Está claro en su contrato: la "Sra. Clause"). Desesperado por encontrar una esposa y ayudar a su hijo, Scott se encamina a casa y deja a un suplente para vigilar las cosas en el Polo. Pero cuando este suplente instaura ciertas extrañas redefiniciones de travieso y agradable - poniendo en riesgo la Navidad - es tiempo de que Scott regrese con una nueva bolsa de magia para tratar de salvar a la Navidad.
























La pelicula NO tiene ninguna marca... solo colocamos el nombre de esta web en las capturas






Código:
General
Format                                   : Matroska
Format version                           : Version 2
File size                                : 4.26 GiB
Duration                                 : 1h 44mn
Overall bit rate                         : 5 848 Kbps
Movie name                               : www.club-hd.com
Encoded date                             : UTC 2012-12-12 21:57:25
Writing application                      : mkvmerge v5.7.0 ('The Whirlwind') built on Jul  8 2012 20:08:51
Writing library                          : libebml v1.2.3 + libmatroska v1.3.0

Video
ID                                       : 1
Format                                   : AVC
Format/Info                              : Advanced Video Codec
Format profile                           : Main@L4.0
Format settings, CABAC                   : Yes
Format settings, ReFrames                : 4 frames
Codec ID                                 : V_MPEG4/ISO/AVC
Duration                                 : 1h 44mn
Bit rate                                 : 4 600 Kbps
Width                                    : 1 920 pixels
Height                                   : 1 064 pixels
Display aspect ratio                     : 16:9
Frame rate mode                          : Constant
Frame rate                               : 23.976 fps
Color space                              : YUV
Chroma subsampling                       : 4:2:0
Bit depth                                : 8 bits
Scan type                                : Progressive
Bits/(Pixel*Frame)                       : 0.094
Stream size                              : 3.25 GiB (76%)
Title                                    : www.club-hd.com
Writing library                          : x264 core 112
Language                                 : English
Default                                  : Yes
Forced                                   : No
Color primaries                          : BT.709
Transfer characteristics                 : BT.709
Matrix coefficients                      : BT.709

Audio #1
ID                                       : 2
Format                                   : AC-3
Format/Info                              : Audio Coding 3
Mode extension                           : CM (complete main)
Format settings, Endianness              : Big
Codec ID                                 : A_AC3
Duration                                 : 1h 44mn
Bit rate mode                            : Constant
Bit rate                                 : 640 Kbps
Channel(s)                               : 6 channels
Channel positions                        : Front: L C R, Side: L R, LFE
Sampling rate                            : 48.0 KHz
Bit depth                                : 16 bits
Compression mode                         : Lossy
Stream size                              : 478 MiB (11%)
Title                                    : www.club-hd.com  >>  Latino
Language                                 : Spanish
Default                                  : Yes
Forced                                   : No

Audio #2
ID                                       : 3
Format                                   : AC-3
Format/Info                              : Audio Coding 3
Mode extension                           : CM (complete main)
Format settings, Endianness              : Big
Codec ID                                 : A_AC3
Duration                                 : 1h 44mn
Bit rate mode                            : Constant
Bit rate                                 : 640 Kbps
Channel(s)                               : 6 channels
Channel positions                        : Front: L C R, Side: L R, LFE
Sampling rate                            : 48.0 KHz
Bit depth                                : 16 bits
Compression mode                         : Lossy
Stream size                              : 478 MiB (11%)
Title                                    : www.club-hd.com  >>  Inglés
Language                                 : English
Default                                  : No
Forced                                   : No

Text #1
ID                                       : 4
Format                                   : UTF-8
Codec ID                                 : S_TEXT/UTF8
Codec ID/Info                            : UTF-8 Plain Text
Language                                 : Spanish
Default                                  : No
Forced                                   : No

Text #2
ID                                       : 5
Format                                   : UTF-8
Codec ID                                 : S_TEXT/UTF8
Codec ID/Info                            : UTF-8 Plain Text
Language                                 : English
Default                                  : No
Forced                                   : No

Menu
00:00:00.000                             : en:Chapter 1
00:07:50.678                             : en:Chapter 2
00:10:25.207                             : en:Chapter 3
00:13:35.314                             : en:Chapter 4
00:17:46.565                             : en:Chapter 5
00:21:13.772                             : en:Chapter 6
00:26:22.914                             : en:Chapter 7
00:31:15.623                             : en:Chapter 8
00:33:35.221                             : en:Chapter 9
00:42:57.199                             : en:Chapter 10
00:51:09.900                             : en:Chapter 11
01:03:58.918                             : en:Chapter 12
01:06:23.187                             : en:Chapter 13
01:11:34.456                             : en:Chapter 14
01:15:37.491                             : en:Chapter 15
01:18:09.935                             : en:Chapter 16
01:19:44.279                             : en:Chapter 17
01:23:10.860                             : en:Chapter 18
01:29:27.737                             : en:Chapter 19
01:37:30.052                             : en:Chapter 20








Para ver este contenido oculto, debes dar click en una de las siguientes reacciones : Like Like, Love Love, Haha Haha, Wow Wow, Sad Sad, Angry Angry
 
Última edición por un moderador:

Yonatan

Admin
Miembro del Staff
Administrador
Registro
27 Ago 2012
Mensajes
1.768
Reacciones
3.730
Puntos
113
Edad
28
Ubicación
Chile, Sexta Región

Reputation:

Aun no comienzo a descargar la 1 y ya subes la dos, tendre que apurarme entonces si estas a full con estas peliculas :D

gracias :aplausos:
 

zacygal

Well-known member
Registro
3 Sep 2012
Mensajes
1.515
Reacciones
1.536
Puntos
113
Edad
49

Reputation:

descargando la 1 pesa alguito, pero vale la pena, a ver si las 2 las termino hoy mil grax ...


:dplgar:
 

sunker-123

New member
Registro
27 Ago 2012
Mensajes
2.433
Reacciones
200
Puntos
0
Edad
31

Reputation:

Muchisimas Gracias R21...Tb_up3
Eres el mejor...Tb_up3
 

carlos610

Well-known member
Registro
28 Ago 2012
Mensajes
1.777
Reacciones
961
Puntos
113
Edad
38
Ubicación
angol, araucania

Reputation:

ho ho ho que gran publicacion ,, revolver21 gracias por traer santa claus 2, a descargar y ver cuando este listo ,, haaaa y esperar con optimismo la santa claus 3 y haci tener la historias completas de esta maravillosa pelicula .. dsaludos
 

Nosferatu

Well-known member
Súper Moderador
Registro
31 Ago 2012
Mensajes
2.275
Reacciones
1.362
Puntos
113
Edad
44
Ubicación
Welcome to Hell!!

Reputation:

:aplausos::aplausos: La numero 2 de la trilogía.

Eres Extraordinario Master R21!:LXR::LXR:
 

Usuarios Que Están Viendo Este Tema (Total: 1, Miembros: 0, Invitados: 1)

Arriba