• Este aviso va dirigido a todos los nuevos miembros recien llegados a Club-HD. Les recordamos que la direccion URL de este sitio web es , asi que deben acceder únicamente por esta URL. Sean todos bienvenidos al Club!

The Swing of Things (2020) 1080p BDRip Dual Latino-Inglés [Sub.Lat-Ing] (Comedia)

Tk

K.D.S 😳
Diseñador
Uploader
Miembro VIP
Registrado
1 May 2017
Mensajes
388
Puntos de reacción
5,027
Puntos
93
Sitio web
www.flickr.com





Un futuro novio reserva accidentalmente su boda y luna de miel de destino en un complejo de swingers en Jamaica.
















Código:
Unique ID                                : 257828846321185764804803057542751372685 (0xC1F807919DC6E07C0A5FB2F26E74C58D)
Complete name                            : The Swing of Things (2020) 1080p BDRip Dual Latino-Inglés [Sub.Lat-Ing].mkv
Format                                   : Matroska
Format version                           : Version 4
File size                                : 9.91 GiB
Duration                                 : 1 h 33 min
Overall bit rate mode                    : Variable
Overall bit rate                         : 15.2 Mb/s
Movie name                               : The Swing of Things (2020) 1080p BDRip Dual Latino-Inglés [www.club-hd.com]
Encoded date                             : UTC 2020-07-02 20:58:14
Writing application                      : mkvmerge v46.0.0 ('No Deeper Escape') 64-bit
Writing library                          : libebml v1.3.10 + libmatroska v1.5.2

Video
ID                                       : 1
Format                                   : AVC
Format/Info                              : Advanced Video Codec
Format profile                           : High@L4.1
Format settings                          : CABAC / 5 Ref Frames
Format settings, CABAC                   : Yes
Format settings, Reference frames        : 5 frames
Codec ID                                 : V_MPEG4/ISO/AVC
Duration                                 : 1 h 33 min
Bit rate                                 : 10.9 Mb/s
Width                                    : 1 920 pixels
Height                                   : 804 pixels
Display aspect ratio                     : 2.40:1
Frame rate mode                          : Constant
Frame rate                               : 23.976 (24000/1001) FPS
Color space                              : YUV
Chroma subsampling                       : 4:2:0
Bit depth                                : 8 bits
Scan type                                : Progressive
Bits/(Pixel*Frame)                       : 0.295
Stream size                              : 7.13 GiB (72%)
Title                                    : The Swing of Things (2020) 1080p BDRip Dual Latino-Inglés [Sub.Lat-Ing]
Writing library                          : x264 core 157 r2938 2b00a84 TnP@MTeam Mod
Encoding settings                        : cabac=1 / ref=5 / deblock=1:-3:-3 / analyse=0x3:0x133 / me=umh / subme=10 / psy=1 / psy_rd=1.05:0.00 / mixed_ref=1 / me_range=32 / chroma_me=1 / trellis=2 / 8x8dct=1 / cqm=0 / deadzone=21,11 / fast_pskip=0 / chroma_qp_offset=-2 / threads=12 / lookahead_threads=2 / sliced_threads=0 / nr=0 / decimate=0 / interlaced=0 / bluray_compat=0 / constrained_intra=0 / bframes=8 / b_pyramid=2 / b_adapt=2 / b_bias=0 / direct=3 / weightb=1 / open_gop=0 / weightp=2 / keyint=250 / keyint_min=24 / scenecut=40 / intra_refresh=0 / rc_lookahead=250 / rc=crf / mbtree=0 / crf=16.8 / qcomp=0.60 / qpmin=0 / qpmax=69 / qpstep=4 / vbv_maxrate=62500 / vbv_bufsize=78125 / crf_max=0.0 / nal_hrd=none / filler=0 / ip_ratio=1.30 / pb_ratio=1.20 / aq=3:0.80
Language                                 : English
Default                                  : Yes
Forced                                   : No
Color range                              : Limited
Color primaries                          : BT.709
Matrix coefficients                      : BT.709

Audio #1
ID                                       : 2
Format                                   : AC-3
Format/Info                              : Audio Coding 3
Commercial name                          : Dolby Digital
Codec ID                                 : A_AC3
Duration                                 : 1 h 33 min
Bit rate mode                            : Constant
Bit rate                                 : 448 kb/s
Channel(s)                               : 6 channels
Channel layout                           : L R C LFE Ls Rs
Sampling rate                            : 48.0 kHz
Frame rate                               : 31.250 FPS (1536 SPF)
Compression mode                         : Lossy
Stream size                              : 299 MiB (3%)
Title                                    : Latino 5.1 [BluRay]
Language                                 : Spanish
Service kind                             : Complete Main
Default                                  : Yes
Forced                                   : No

Audio #2
ID                                       : 3
ID in the original source medium         : 4352 (0x1100)
Format                                   : DTS XLL
Format/Info                              : Digital Theater Systems
Commercial name                          : DTS-HD Master Audio
Codec ID                                 : A_DTS
Duration                                 : 1 h 33 min
Bit rate mode                            : Variable
Bit rate                                 : 3 750 kb/s
Channel(s)                               : 6 channels
Channel layout                           : C L R Ls Rs LFE
Sampling rate                            : 48.0 kHz
Frame rate                               : 93.750 FPS (512 SPF)
Bit depth                                : 24 bits
Compression mode                         : Lossless
Stream size                              : 2.45 GiB (25%)
Title                                    : Inglés 5.1 [BluRay]
Language                                 : English
Default                                  : No
Forced                                   : No
Original source medium                   : Blu-ray

Text #1
ID                                       : 4
Format                                   : UTF-8
Codec ID                                 : S_TEXT/UTF8
Codec ID/Info                            : UTF-8 Plain Text
Duration                                 : 1 h 31 min
Bit rate                                 : 67 b/s
Count of elements                        : 1326
Stream size                              : 45.2 KiB (0%)
Title                                    : Completos [SRT]
Language                                 : Spanish
Default                                  : No
Forced                                   : No

Text #2
ID                                       : 5
Format                                   : UTF-8
Codec ID                                 : S_TEXT/UTF8
Codec ID/Info                            : UTF-8 Plain Text
Duration                                 : 1 h 24 min
Bit rate                                 : 1 b/s
Count of elements                        : 20
Stream size                              : 778 Bytes (0%)
Title                                    : Forzados [SRT]
Language                                 : Spanish
Default                                  : No
Forced                                   : Yes

Text #3
ID                                       : 6
Format                                   : UTF-8
Codec ID                                 : S_TEXT/UTF8
Codec ID/Info                            : UTF-8 Plain Text
Duration                                 : 1 h 31 min
Bit rate                                 : 72 b/s
Count of elements                        : 1409
Stream size                              : 48.7 KiB (0%)
Title                                    : Completos [SRT]
Language                                 : English
Default                                  : No
Forced                                   : No

Text #4
ID                                       : 7
Format                                   : UTF-8
Codec ID                                 : S_TEXT/UTF8
Codec ID/Info                            : UTF-8 Plain Text
Duration                                 : 34 min 7 s
Bit rate                                 : 2 b/s
Count of elements                        : 15
Stream size                              : 583 Bytes (0%)
Title                                    : Forzados [SRT]
Language                                 : English
Default                                  : No
Forced                                   : No

Text #5
ID                                       : 8
ID in the original source medium         : 4609 (0x1201)
Format                                   : PGS
Muxing mode                              : zlib
Codec ID                                 : S_HDMV/PGS
Codec ID/Info                            : Picture based subtitle format used on BDs/HD-DVDs
Duration                                 : 1 h 31 min
Bit rate                                 : 40.2 kb/s
Count of elements                        : 2652
Stream size                              : 26.4 MiB (0%)
Title                                    : Completos [PGS]
Language                                 : Spanish
Default                                  : No
Forced                                   : No
Original source medium                   : Blu-ray

Text #6
ID                                       : 9
ID in the original source medium         : 4608 (0x1200)
Format                                   : PGS
Muxing mode                              : zlib
Codec ID                                 : S_HDMV/PGS
Codec ID/Info                            : Picture based subtitle format used on BDs/HD-DVDs
Duration                                 : 1 h 32 min
Bit rate                                 : 47.9 kb/s
Count of elements                        : 3074
Stream size                              : 31.6 MiB (0%)
Title                                    : Completos [PGS]
Language                                 : English
Default                                  : No
Forced                                   : No
Original source medium                   : Blu-ray

Text #7
ID                                       : 10
Format                                   : PGS
Muxing mode                              : zlib
Codec ID                                 : S_HDMV/PGS
Codec ID/Info                            : Picture based subtitle format used on BDs/HD-DVDs
Duration                                 : 34 min 7 s
Bit rate                                 : 1 247 b/s
Count of elements                        : 30
Stream size                              : 312 KiB (0%)
Title                                    : Forzados [PGS]
Language                                 : English
Default                                  : No
Forced                                   : No

Menu
00:00:00.000                             : en:Chapter 01
00:05:36.085                             : en:Chapter 02
00:09:36.492                             : en:Chapter 03
00:15:25.883                             : en:Chapter 04
00:20:19.092                             : en:Chapter 05
00:26:51.818                             : en:Chapter 06
00:32:20.980                             : en:Chapter 07
00:39:52.223                             : en:Chapter 08
00:45:29.226                             : en:Chapter 09
00:51:11.443                             : en:Chapter 10
00:55:40.712                             : en:Chapter 11
01:02:24.741                             : en:Chapter 12
01:08:54.171                             : en:Chapter 13
01:15:10.255                             : en:Chapter 14
01:20:46.299                             : en:Chapter 15
01:27:58.773                             : en:Chapter 16
Subtítulos corregidos de errores ocr por Clasaase aquí



www.club-hd.com





Enlaces de Mega y Google Drive solo disponibles para Miembros VIP

Compra tu Membresía VIP y apoya a Club-HD!

ATENCIÓN! Tenemos TODO el material de Club-HD disponible por Mega y Google Drive, enlaces 100% activos y online hasta la fecha

Llévate tus cuentas Mega PRO II gratis con tu membresía VIP!
Todos los posts vivos con links de Mega y Google Drive.
Todo el material de Club-HD desbloqueado y sin publicidad.

Click Aquí para más información.

Para ver este contenido oculto, debes dar click en una de las siguientes reacciones: Like Like, Love Love, Haha Haha, Wow Wow, Sad Sad, Angry Angry

Para ver este contenido oculto, debes dar click en una de las siguientes reacciones: Like Like, Love Love, Haha Haha, Wow Wow, Sad Sad, Angry Angry

Para ver este contenido oculto, debes dar click en una de las siguientes reacciones: Like Like, Love Love, Haha Haha, Wow Wow, Sad Sad, Angry Angry


Para ver este contenido oculto, debes dar click en una de las siguientes reacciones: Like Like, Love Love, Haha Haha, Wow Wow, Sad Sad, Angry Angry
 
Última edición por un moderador:

ERRE

Well-known member
Registrado
28 Ago 2012
Mensajes
2,217
Puntos de reacción
171
Puntos
63
Gracias... 😄
 

galiel38

Active member
Registrado
28 Sep 2012
Mensajes
693
Puntos de reacción
81
Puntos
28
Edad
32
Muchas gracias por la película.
 

rubinchi123

Member
Registrado
28 Ago 2012
Mensajes
237
Puntos de reacción
10
Puntos
18
Edad
29
Ubicación
San Cristóbal, Santa Fe, Argentina
(y)(y)(y)(y)(y)(y)(y):p:p:p:p gracias!





Un futuro novio reserva accidentalmente su boda y luna de miel de destino en un complejo de swingers en Jamaica.
















Código:
Unique ID                                : 257828846321185764804803057542751372685 (0xC1F807919DC6E07C0A5FB2F26E74C58D)
Complete name                            : The Swing of Things (2020) 1080p BDRip Dual Latino-Inglés [Sub.Lat-Ing].mkv
Format                                   : Matroska
Format version                           : Version 4
File size                                : 9.91 GiB
Duration                                 : 1 h 33 min
Overall bit rate mode                    : Variable
Overall bit rate                         : 15.2 Mb/s
Movie name                               : The Swing of Things (2020) 1080p BDRip Dual Latino-Inglés [www.club-hd.com]
Encoded date                             : UTC 2020-07-02 20:58:14
Writing application                      : mkvmerge v46.0.0 ('No Deeper Escape') 64-bit
Writing library                          : libebml v1.3.10 + libmatroska v1.5.2

Video
ID                                       : 1
Format                                   : AVC
Format/Info                              : Advanced Video Codec
Format profile                           : High@L4.1
Format settings                          : CABAC / 5 Ref Frames
Format settings, CABAC                   : Yes
Format settings, Reference frames        : 5 frames
Codec ID                                 : V_MPEG4/ISO/AVC
Duration                                 : 1 h 33 min
Bit rate                                 : 10.9 Mb/s
Width                                    : 1 920 pixels
Height                                   : 804 pixels
Display aspect ratio                     : 2.40:1
Frame rate mode                          : Constant
Frame rate                               : 23.976 (24000/1001) FPS
Color space                              : YUV
Chroma subsampling                       : 4:2:0
Bit depth                                : 8 bits
Scan type                                : Progressive
Bits/(Pixel*Frame)                       : 0.295
Stream size                              : 7.13 GiB (72%)
Title                                    : The Swing of Things (2020) 1080p BDRip Dual Latino-Inglés [Sub.Lat-Ing]
Writing library                          : x264 core 157 r2938 2b00a84 TnP@MTeam Mod
Encoding settings                        : cabac=1 / ref=5 / deblock=1:-3:-3 / analyse=0x3:0x133 / me=umh / subme=10 / psy=1 / psy_rd=1.05:0.00 / mixed_ref=1 / me_range=32 / chroma_me=1 / trellis=2 / 8x8dct=1 / cqm=0 / deadzone=21,11 / fast_pskip=0 / chroma_qp_offset=-2 / threads=12 / lookahead_threads=2 / sliced_threads=0 / nr=0 / decimate=0 / interlaced=0 / bluray_compat=0 / constrained_intra=0 / bframes=8 / b_pyramid=2 / b_adapt=2 / b_bias=0 / direct=3 / weightb=1 / open_gop=0 / weightp=2 / keyint=250 / keyint_min=24 / scenecut=40 / intra_refresh=0 / rc_lookahead=250 / rc=crf / mbtree=0 / crf=16.8 / qcomp=0.60 / qpmin=0 / qpmax=69 / qpstep=4 / vbv_maxrate=62500 / vbv_bufsize=78125 / crf_max=0.0 / nal_hrd=none / filler=0 / ip_ratio=1.30 / pb_ratio=1.20 / aq=3:0.80
Language                                 : English
Default                                  : Yes
Forced                                   : No
Color range                              : Limited
Color primaries                          : BT.709
Matrix coefficients                      : BT.709

Audio #1
ID                                       : 2
Format                                   : AC-3
Format/Info                              : Audio Coding 3
Commercial name                          : Dolby Digital
Codec ID                                 : A_AC3
Duration                                 : 1 h 33 min
Bit rate mode                            : Constant
Bit rate                                 : 448 kb/s
Channel(s)                               : 6 channels
Channel layout                           : L R C LFE Ls Rs
Sampling rate                            : 48.0 kHz
Frame rate                               : 31.250 FPS (1536 SPF)
Compression mode                         : Lossy
Stream size                              : 299 MiB (3%)
Title                                    : Latino 5.1 [BluRay]
Language                                 : Spanish
Service kind                             : Complete Main
Default                                  : Yes
Forced                                   : No

Audio #2
ID                                       : 3
ID in the original source medium         : 4352 (0x1100)
Format                                   : DTS XLL
Format/Info                              : Digital Theater Systems
Commercial name                          : DTS-HD Master Audio
Codec ID                                 : A_DTS
Duration                                 : 1 h 33 min
Bit rate mode                            : Variable
Bit rate                                 : 3 750 kb/s
Channel(s)                               : 6 channels
Channel layout                           : C L R Ls Rs LFE
Sampling rate                            : 48.0 kHz
Frame rate                               : 93.750 FPS (512 SPF)
Bit depth                                : 24 bits
Compression mode                         : Lossless
Stream size                              : 2.45 GiB (25%)
Title                                    : Inglés 5.1 [BluRay]
Language                                 : English
Default                                  : No
Forced                                   : No
Original source medium                   : Blu-ray

Text #1
ID                                       : 4
Format                                   : UTF-8
Codec ID                                 : S_TEXT/UTF8
Codec ID/Info                            : UTF-8 Plain Text
Duration                                 : 1 h 31 min
Bit rate                                 : 67 b/s
Count of elements                        : 1326
Stream size                              : 45.2 KiB (0%)
Title                                    : Completos [SRT]
Language                                 : Spanish
Default                                  : No
Forced                                   : No

Text #2
ID                                       : 5
Format                                   : UTF-8
Codec ID                                 : S_TEXT/UTF8
Codec ID/Info                            : UTF-8 Plain Text
Duration                                 : 1 h 24 min
Bit rate                                 : 1 b/s
Count of elements                        : 20
Stream size                              : 778 Bytes (0%)
Title                                    : Forzados [SRT]
Language                                 : Spanish
Default                                  : No
Forced                                   : Yes

Text #3
ID                                       : 6
Format                                   : UTF-8
Codec ID                                 : S_TEXT/UTF8
Codec ID/Info                            : UTF-8 Plain Text
Duration                                 : 1 h 31 min
Bit rate                                 : 72 b/s
Count of elements                        : 1409
Stream size                              : 48.7 KiB (0%)
Title                                    : Completos [SRT]
Language                                 : English
Default                                  : No
Forced                                   : No

Text #4
ID                                       : 7
Format                                   : UTF-8
Codec ID                                 : S_TEXT/UTF8
Codec ID/Info                            : UTF-8 Plain Text
Duration                                 : 34 min 7 s
Bit rate                                 : 2 b/s
Count of elements                        : 15
Stream size                              : 583 Bytes (0%)
Title                                    : Forzados [SRT]
Language                                 : English
Default                                  : No
Forced                                   : No

Text #5
ID                                       : 8
ID in the original source medium         : 4609 (0x1201)
Format                                   : PGS
Muxing mode                              : zlib
Codec ID                                 : S_HDMV/PGS
Codec ID/Info                            : Picture based subtitle format used on BDs/HD-DVDs
Duration                                 : 1 h 31 min
Bit rate                                 : 40.2 kb/s
Count of elements                        : 2652
Stream size                              : 26.4 MiB (0%)
Title                                    : Completos [PGS]
Language                                 : Spanish
Default                                  : No
Forced                                   : No
Original source medium                   : Blu-ray

Text #6
ID                                       : 9
ID in the original source medium         : 4608 (0x1200)
Format                                   : PGS
Muxing mode                              : zlib
Codec ID                                 : S_HDMV/PGS
Codec ID/Info                            : Picture based subtitle format used on BDs/HD-DVDs
Duration                                 : 1 h 32 min
Bit rate                                 : 47.9 kb/s
Count of elements                        : 3074
Stream size                              : 31.6 MiB (0%)
Title                                    : Completos [PGS]
Language                                 : English
Default                                  : No
Forced                                   : No
Original source medium                   : Blu-ray

Text #7
ID                                       : 10
Format                                   : PGS
Muxing mode                              : zlib
Codec ID                                 : S_HDMV/PGS
Codec ID/Info                            : Picture based subtitle format used on BDs/HD-DVDs
Duration                                 : 34 min 7 s
Bit rate                                 : 1 247 b/s
Count of elements                        : 30
Stream size                              : 312 KiB (0%)
Title                                    : Forzados [PGS]
Language                                 : English
Default                                  : No
Forced                                   : No

Menu
00:00:00.000                             : en:Chapter 01
00:05:36.085                             : en:Chapter 02
00:09:36.492                             : en:Chapter 03
00:15:25.883                             : en:Chapter 04
00:20:19.092                             : en:Chapter 05
00:26:51.818                             : en:Chapter 06
00:32:20.980                             : en:Chapter 07
00:39:52.223                             : en:Chapter 08
00:45:29.226                             : en:Chapter 09
00:51:11.443                             : en:Chapter 10
00:55:40.712                             : en:Chapter 11
01:02:24.741                             : en:Chapter 12
01:08:54.171                             : en:Chapter 13
01:15:10.255                             : en:Chapter 14
01:20:46.299                             : en:Chapter 15
01:27:58.773                             : en:Chapter 16

www.club-hd.com





[Hidden content]


[Hidden content]


[Hidden content]

[Hidden content]



[Hidden content]
 

cripp

Well-known member
Registrado
27 Ago 2012
Mensajes
8,128
Puntos de reacción
481
Puntos
113
Gracias por compartir
 

Usuarios Que Están Viendo Este Tema (Total: 1, Miembros: 0, Invitados: 1)

Arriba