• Este aviso va dirigido a todos los nuevos miembros recien llegados a Club-HD. Les recordamos que la direccion URL de este sitio web es , asi que deben acceder únicamente por esta URL. Sean todos bienvenidos al Club!

The Tax Collector (2020) 1080p AMZN WEB-DL Inglés [Sub.Lat-Ing] (Thriller. Drama, Crimen)

Tk

K.D.S 😳
Diseñador
Uploader
Miembro VIP
Registrado
1 May 2017
Mensajes
395
Puntos de reacción
5,511
Puntos
93
Sitio web
www.flickr.com





David Cuevas es un hombre de familia que trabaja como un recolector de impuestos para una banda de mafiosos de Los Ángeles. A su lado va siempre su compañero Creeper, encargándose de que la gente pague o se enfrente a las consecuencias de no hacerlo. Sin embargo, una vieja amenaza regresa a la ciudad, poniendo en peligro todo lo que David ama en su vida.
















Código:
Unique ID                                : 247075851216401927525026308858807013129 (0xB9E113FA6194130977AA9F61A6174F09)
Complete name                            : The Tax Collector (2020) 1080p AMZN WEB-DL Inglés [Sub.Lat-Ing].mkv
Format                                   : Matroska
Format version                           : Version 4
File size                                : 4.87 GiB
Duration                                 : 1 h 35 min
Overall bit rate                         : 7 306 kb/s
Movie name                               : The Tax Collector (2020) 1080p AMZN WEB-DL Inglés [www.club-hd.com]
Encoded date                             : UTC 2020-08-08 01:17:03
Writing application                      : mkvmerge v46.0.0 ('No Deeper Escape') 64-bit
Writing library                          : libebml v1.3.10 + libmatroska v1.5.2

Video
ID                                       : 1
Format                                   : AVC
Format/Info                              : Advanced Video Codec
Format profile                           : High@L4
Format settings                          : CABAC / 4 Ref Frames
Format settings, CABAC                   : Yes
Format settings, Reference frames        : 4 frames
Codec ID                                 : V_MPEG4/ISO/AVC
Duration                                 : 1 h 35 min
Bit rate mode                            : Constant
Bit rate                                 : 6 663 kb/s
Nominal bit rate                         : 10 000 kb/s
Width                                    : 1 920 pixels
Height                                   : 1 040 pixels
Display aspect ratio                     : 1.85:1
Frame rate mode                          : Constant
Frame rate                               : 24.000 FPS
Color space                              : YUV
Chroma subsampling                       : 4:2:0
Bit depth                                : 8 bits
Scan type                                : Progressive
Bits/(Pixel*Frame)                       : 0.139
Stream size                              : 4.44 GiB (91%)
Title                                    : The Tax Collector (2020) 1080p AMZN WEB-DL Inglés [Sub.Lat-Ing]
Default                                  : Yes
Forced                                   : No
Color range                              : Limited
Color primaries                          : BT.709
Transfer characteristics                 : BT.709
Matrix coefficients                      : BT.709

Audio
ID                                       : 2
Format                                   : E-AC-3
Format/Info                              : Enhanced AC-3
Commercial name                          : Dolby Digital Plus
Codec ID                                 : A_EAC3
Duration                                 : 1 h 35 min
Bit rate mode                            : Constant
Bit rate                                 : 640 kb/s
Channel(s)                               : 6 channels
Channel layout                           : L R C LFE Ls Rs
Sampling rate                            : 48.0 kHz
Frame rate                               : 31.250 FPS (1536 SPF)
Compression mode                         : Lossy
Stream size                              : 437 MiB (9%)
Title                                    : Inglés 5.1
Language                                 : English
Service kind                             : Complete Main
Default                                  : Yes
Forced                                   : No

Text #1
ID                                       : 3
Format                                   : UTF-8
Codec ID                                 : S_TEXT/UTF8
Codec ID/Info                            : UTF-8 Plain Text
Duration                                 : 1 h 28 min
Bit rate                                 : 48 b/s
Count of elements                        : 1120
Stream size                              : 31.5 KiB (0%)
Title                                    : Completos [SRT]
Language                                 : Spanish
Default                                  : Yes
Forced                                   : No

Text #2
ID                                       : 4
Format                                   : UTF-8
Codec ID                                 : S_TEXT/UTF8
Codec ID/Info                            : UTF-8 Plain Text
Duration                                 : 1 h 28 min
Bit rate                                 : 57 b/s
Count of elements                        : 1207
Stream size                              : 36.9 KiB (0%)
Title                                    : Completos [SRT]
Language                                 : English
Default                                  : No
Forced                                   : No

Text #3
ID                                       : 5
Format                                   : UTF-8
Codec ID                                 : S_TEXT/UTF8
Codec ID/Info                            : UTF-8 Plain Text
Duration                                 : 1 h 28 min
Bit rate                                 : 58 b/s
Count of elements                        : 1252
Stream size                              : 37.8 KiB (0%)
Title                                    : Completos [SRT-SDH]
Language                                 : English
Default                                  : No
Forced                                   : No

www.club-hd.com







Enlaces de Mega y Google Drive solo disponibles para Miembros VIP

Compra tu Membresía VIP y apoya a Club-HD!

ATENCIÓN! Tenemos TODO el material de Club-HD disponible por Mega y Google Drive, enlaces 100% activos y online hasta la fecha

Llévate tus cuentas Mega PRO II gratis con tu membresía VIP!
Todos los posts vivos con links de Mega y Google Drive.
Todo el material de Club-HD desbloqueado y sin publicidad.

Click Aquí para más información.


Enlaces de Mega y Google Drive solo disponibles para Miembros VIP

Compra tu Membresía VIP y apoya a Club-HD!

ATENCIÓN! Tenemos TODO el material de Club-HD disponible por Mega y Google Drive, enlaces 100% activos y online hasta la fecha

Llévate tus cuentas Mega PRO II gratis con tu membresía VIP!
Todos los posts vivos con links de Mega y Google Drive.
Todo el material de Club-HD desbloqueado y sin publicidad.

Click Aquí para más información.

Para ver este contenido oculto, debes dar click en una de las siguientes reacciones: Like Like, Love Love, Haha Haha, Wow Wow, Sad Sad, Angry Angry

Para ver este contenido oculto, debes dar click en una de las siguientes reacciones: Like Like, Love Love, Haha Haha, Wow Wow, Sad Sad, Angry Angry

Para ver este contenido oculto, debes dar click en una de las siguientes reacciones: Like Like, Love Love, Haha Haha, Wow Wow, Sad Sad, Angry Angry


Para ver este contenido oculto, debes dar click en una de las siguientes reacciones: Like Like, Love Love, Haha Haha, Wow Wow, Sad Sad, Angry Angry
 

rachi

Active member
Registrado
21 Jul 2018
Mensajes
689
Puntos de reacción
83
Puntos
28
Gracias por el aporte
 

foxzzer

Well-known member
Registrado
28 Ago 2012
Mensajes
1,433
Puntos de reacción
75
Puntos
48
Edad
34
gracias lo esperaba
 

opv_2011

Active member
Registrado
3 Feb 2016
Mensajes
742
Puntos de reacción
47
Puntos
28
Edad
47





David Cuevas es un hombre de familia que trabaja como un recolector de impuestos para una banda de mafiosos de Los Ángeles. A su lado va siempre su compañero Creeper, encargándose de que la gente pague o se enfrente a las consecuencias de no hacerlo. Sin embargo, una vieja amenaza regresa a la ciudad, poniendo en peligro todo lo que David ama en su vida.
















Código:
Unique ID                                : 247075851216401927525026308858807013129 (0xB9E113FA6194130977AA9F61A6174F09)
Complete name                            : The Tax Collector (2020) 1080p AMZN WEB-DL Inglés [Sub.Lat-Ing].mkv
Format                                   : Matroska
Format version                           : Version 4
File size                                : 4.87 GiB
Duration                                 : 1 h 35 min
Overall bit rate                         : 7 306 kb/s
Movie name                               : The Tax Collector (2020) 1080p AMZN WEB-DL Inglés [www.club-hd.com]
Encoded date                             : UTC 2020-08-08 01:17:03
Writing application                      : mkvmerge v46.0.0 ('No Deeper Escape') 64-bit
Writing library                          : libebml v1.3.10 + libmatroska v1.5.2

Video
ID                                       : 1
Format                                   : AVC
Format/Info                              : Advanced Video Codec
Format profile                           : High@L4
Format settings                          : CABAC / 4 Ref Frames
Format settings, CABAC                   : Yes
Format settings, Reference frames        : 4 frames
Codec ID                                 : V_MPEG4/ISO/AVC
Duration                                 : 1 h 35 min
Bit rate mode                            : Constant
Bit rate                                 : 6 663 kb/s
Nominal bit rate                         : 10 000 kb/s
Width                                    : 1 920 pixels
Height                                   : 1 040 pixels
Display aspect ratio                     : 1.85:1
Frame rate mode                          : Constant
Frame rate                               : 24.000 FPS
Color space                              : YUV
Chroma subsampling                       : 4:2:0
Bit depth                                : 8 bits
Scan type                                : Progressive
Bits/(Pixel*Frame)                       : 0.139
Stream size                              : 4.44 GiB (91%)
Title                                    : The Tax Collector (2020) 1080p AMZN WEB-DL Inglés [Sub.Lat-Ing]
Default                                  : Yes
Forced                                   : No
Color range                              : Limited
Color primaries                          : BT.709
Transfer characteristics                 : BT.709
Matrix coefficients                      : BT.709

Audio
ID                                       : 2
Format                                   : E-AC-3
Format/Info                              : Enhanced AC-3
Commercial name                          : Dolby Digital Plus
Codec ID                                 : A_EAC3
Duration                                 : 1 h 35 min
Bit rate mode                            : Constant
Bit rate                                 : 640 kb/s
Channel(s)                               : 6 channels
Channel layout                           : L R C LFE Ls Rs
Sampling rate                            : 48.0 kHz
Frame rate                               : 31.250 FPS (1536 SPF)
Compression mode                         : Lossy
Stream size                              : 437 MiB (9%)
Title                                    : Inglés 5.1
Language                                 : English
Service kind                             : Complete Main
Default                                  : Yes
Forced                                   : No

Text #1
ID                                       : 3
Format                                   : UTF-8
Codec ID                                 : S_TEXT/UTF8
Codec ID/Info                            : UTF-8 Plain Text
Duration                                 : 1 h 28 min
Bit rate                                 : 48 b/s
Count of elements                        : 1120
Stream size                              : 31.5 KiB (0%)
Title                                    : Completos [SRT]
Language                                 : Spanish
Default                                  : Yes
Forced                                   : No

Text #2
ID                                       : 4
Format                                   : UTF-8
Codec ID                                 : S_TEXT/UTF8
Codec ID/Info                            : UTF-8 Plain Text
Duration                                 : 1 h 28 min
Bit rate                                 : 57 b/s
Count of elements                        : 1207
Stream size                              : 36.9 KiB (0%)
Title                                    : Completos [SRT]
Language                                 : English
Default                                  : No
Forced                                   : No

Text #3
ID                                       : 5
Format                                   : UTF-8
Codec ID                                 : S_TEXT/UTF8
Codec ID/Info                            : UTF-8 Plain Text
Duration                                 : 1 h 28 min
Bit rate                                 : 58 b/s
Count of elements                        : 1252
Stream size                              : 37.8 KiB (0%)
Title                                    : Completos [SRT-SDH]
Language                                 : English
Default                                  : No
Forced                                   : No

www.club-hd.com







[Hidden content]



[Hidden content]


[Hidden content]


[Hidden content]


[Hidden content]



[Hidden content]
gracias por la película!
 

galiel38

Active member
Registrado
28 Sep 2012
Mensajes
708
Puntos de reacción
86
Puntos
28
Edad
32
Muchas gracias por la película.
 

El14mago

Well-known member
Miembro VIP
Registrado
10 Sep 2014
Mensajes
1,036
Puntos de reacción
53
Puntos
48
Edad
51
Gracias por el aporte.-
 

crack20

𝙀𝙡 𝙐𝙡𝙩𝙧𝙖 𝙄𝙣𝙨𝙩𝙞𝙣𝙩𝙤
Colaborador
Registrado
1 Jul 2015
Mensajes
679
Puntos de reacción
3,410
Puntos
93
Edad
27
Ubicación
惑星ベジータ
Sitio web
latinouhd.com
Witwicky haciendo del mas capo... :LOL:
vamos a ver que tal, gracias por compartir.
 
  • Haha
Reacciones: Tk

cripp

Well-known member
Registrado
27 Ago 2012
Mensajes
8,196
Puntos de reacción
495
Puntos
113
Gracias por compartir
 

Usuarios Que Están Viendo Este Tema (Total: 1, Miembros: 0, Invitados: 1)

Quien Leyó Este Tema (Total Miembros: 8)

Arriba