The Twilight Saga: Breaking Dawn - Part 2 (2012) m-720p Dual Latino-Inglés [Subt. Esp-Ing] (Fantástico. Romance)

Maestro Revolver

Well-known member
Miembro del Staff
Administrador
Registro
9 Ago 2012
Mensajes
3.569
Reacciones
59.366
Puntos
113

Reputation:









TÍTULO ORIGINAL: The Twilight Saga: Breaking Dawn - Part 2
AÑO: 2012
DURACIÓN: 115 min.
PAÍS: USA
DIRECTOR: Bill Condon
GUIÓN: Melissa Rosenberg (Novela: Stephenie Meyer)
REPARTO: Kristen Stewart, Robert Pattinson, Taylor Lautner, Peter Facinelli, Dakota Fanning, Ashley Greene, Jackson Rathbone, Nikki Reed, Kellan Lutz, Peter Facinelli, Elizabeth Reaser, Michael Sheen, Billy Burke, Booboo Stewart, Cameron Bright, Michael Welch, Julia Jones, Kiowa Gordon, Alex Meraz, Valorie Curry, Christopher Heyerdahl, Daniel Cudmore, Charlie Bewley, Jamie Campbell Bower
PRODUCTORA: Summit Entertainment
GÉNERO: Fantástico. Romance. Thriller | Vampiros. Hombres lobo. Secuela
: http://www.imdb.com/title/tt1673434/






Tras convertirse en vampiro, Bella debe adaptarse a su nueva naturaleza. Cuando nace Renesmee, la familia Cullen tendrá que protegerse de la amenaza de los Volturi, pues existe una ley que prohíbe transformar a los niños en vampiros, ya que son difíciles de controlar y pueden provocar desastres que pongan en peligro la secreta existencia de los vampiros. Segunda parte de "Amanecer" y quinta entrega de la franquicia cinematográfica Crepúsculo, basada en las novelas de Stephenie Meyer.
























La pelicula NO tiene ninguna marca... solo colocamos el nombre de esta web en las capturas






Código:
General
Format                                   : Matroska
Format version                           : Version 2
File size                                : 3.14 GiB
Duration                                 : 1h 55mn
Overall bit rate                         : 3 897 Kbps
Movie name                               : www.club-hd.com
Encoded date                             : UTC 2013-02-19 14:42:45
Writing application                      : mkvmerge v5.7.0 ('The Whirlwind') built on Jul  8 2012 20:08:51
Writing library                          : libebml v1.2.3 + libmatroska v1.3.0

Video
ID                                       : 1
Format                                   : AVC
Format/Info                              : Advanced Video Codec
Format profile                           : High@L4.1
Format settings, CABAC                   : Yes
Format settings, ReFrames                : 8 frames
Codec ID                                 : V_MPEG4/ISO/AVC
Duration                                 : 1h 55mn
Bit rate                                 : 3 000 Kbps
Width                                    : 1 280 pixels
Height                                   : 528 pixels
Display aspect ratio                     : 2.40:1
Frame rate mode                          : Constant
Frame rate                               : 23.976 fps
Color space                              : YUV
Chroma subsampling                       : 4:2:0
Bit depth                                : 8 bits
Scan type                                : Progressive
Bits/(Pixel*Frame)                       : 0.185
Stream size                              : 2.35 GiB (75%)
Title                                    : www.club-hd.com
Writing library                          : x264 core 120
Language                                 : English
Default                                  : Yes
Forced                                   : No
Color primaries                          : BT.709
Transfer characteristics                 : BT.709
Matrix coefficients                      : BT.709

Audio #1
ID                                       : 2
Format                                   : AC-3
Format/Info                              : Audio Coding 3
Mode extension                           : CM (complete main)
Format settings, Endianness              : Big
Codec ID                                 : A_AC3
Duration                                 : 1h 55mn
Bit rate mode                            : Constant
Bit rate                                 : 448 Kbps
Channel(s)                               : 6 channels
Channel positions                        : Front: L C R, Side: L R, LFE
Sampling rate                            : 48.0 KHz
Bit depth                                : 16 bits
Compression mode                         : Lossy
Delay relative to video                  : 300ms
Stream size                              : 369 MiB (11%)
Title                                    : www.club-hd.com  >>  Latino
Language                                 : Spanish
Default                                  : Yes
Forced                                   : No

Audio #2
ID                                       : 3
Format                                   : AC-3
Format/Info                              : Audio Coding 3
Mode extension                           : CM (complete main)
Format settings, Endianness              : Big
Codec ID                                 : A_AC3
Duration                                 : 1h 55mn
Bit rate mode                            : Constant
Bit rate                                 : 448 Kbps
Channel(s)                               : 6 channels
Channel positions                        : Front: L C R, Side: L R, LFE
Sampling rate                            : 48.0 KHz
Bit depth                                : 16 bits
Compression mode                         : Lossy
Stream size                              : 369 MiB (11%)
Title                                    : www.club-hd.com  >>  Inglés
Language                                 : English
Default                                  : No
Forced                                   : No

Text #1
ID                                       : 4
Format                                   : UTF-8
Codec ID                                 : S_TEXT/UTF8
Codec ID/Info                            : UTF-8 Plain Text
Language                                 : Spanish
Default                                  : No
Forced                                   : No

Text #2
ID                                       : 5
Format                                   : UTF-8
Codec ID                                 : S_TEXT/UTF8
Codec ID/Info                            : UTF-8 Plain Text
Language                                 : English
Default                                  : No
Forced                                   : No

Menu
00:00:00.000                             : en:Chapter 1
00:08:04.066                             : en:Chapter 2
00:13:35.397                             : en:Chapter 3
00:18:36.073                             : en:Chapter 4
00:22:11.079                             : en:Chapter 5
00:30:03.343                             : en:Chapter 6
00:38:06.158                             : en:Chapter 7
00:44:23.702                             : en:Chapter 8
00:48:35.996                             : en:Chapter 9
00:52:31.565                             : en:Chapter 10
00:58:11.946                             : en:Chapter 11
01:02:10.393                             : en:Chapter 12
01:08:26.060                             : en:Chapter 13
01:11:38.544                             : en:Chapter 14
01:20:35.622                             : en:Chapter 15
01:24:57.509                             : en:Chapter 16
01:32:17.156                             : en:Chapter 17
01:38:08.966                             : en:Chapter 18










Enlaces de Mega y Fireload solo disponibles para Miembros VIP

Compra tu Membresía VIP y apoya a Club-HD!

ATENCIÓN! Tenemos TODO el material de Club-HD disponible por Mega y Fireload, enlaces 100% activos y online hasta la fecha

Llévate tus cuentas Mega PRO II gratis con tu membresía VIP!
Todos los posts vivos con links de Mega y Fireload.
Todo el material de Club-HD desbloqueado y sin publicidad.

Click Aquí para más información.




Enlaces de Mega y Fireload solo disponibles para Miembros VIP

Compra tu Membresía VIP y apoya a Club-HD!

ATENCIÓN! Tenemos TODO el material de Club-HD disponible por Mega y Fireload, enlaces 100% activos y online hasta la fecha

Llévate tus cuentas Mega PRO II gratis con tu membresía VIP!
Todos los posts vivos con links de Mega y Fireload.
Todo el material de Club-HD desbloqueado y sin publicidad.

Click Aquí para más información.




Enlaces de Mega y Fireload solo disponibles para Miembros VIP

Compra tu Membresía VIP y apoya a Club-HD!

ATENCIÓN! Tenemos TODO el material de Club-HD disponible por Mega y Fireload, enlaces 100% activos y online hasta la fecha

Llévate tus cuentas Mega PRO II gratis con tu membresía VIP!
Todos los posts vivos con links de Mega y Fireload.
Todo el material de Club-HD desbloqueado y sin publicidad.

Click Aquí para más información.



Para ver este contenido oculto, debes dar click en una de las siguientes reacciones : Like Like, Love Love, Haha Haha, Wow Wow, Sad Sad, Angry Angry

 
Última edición:

Mate78

Ladron de mi cerebro
Miembro del Staff
Súper Moderador
Registro
27 Ago 2012
Mensajes
1.236
Reacciones
920
Puntos
113

Reputation:

Sos una BESTIAAAAAA , gracias R21 !!!:aplausos:Tb_up3
 

Pedrum

The Buckminster
Registro
28 Ago 2012
Mensajes
1.092
Reacciones
1.546
Puntos
113
Ubicación
Bahia Blanca

Reputation:

Gracias Revolver! A ver como termina esta saga de vampiros y lobos...

Saludos man! victory
 

Usuarios Que Están Viendo Este Tema (Total: 1, Miembros: 0, Invitados: 1)

Arriba