• Este aviso va dirigido a todos los nuevos miembros recien llegados a Club-HD. Les recordamos que la direccion URL de este sitio web es , asi que deben acceder únicamente por esta URL. Sean todos bienvenidos al Club!

The Walking Dead (2019-2020) T10 E11 1080p AMZN WEB-DL Dual Latino-Inglés [Subt. Esp]

Flaco

Well-known member
Miembro del Staff
Moderador
Uploader
Registrado
25 May 2015
Mensajes
605
Puntos de reacción
3,112
Puntos
93
Ubicación
Lima, Perú





Título original: The Walking Dead (TV Series)
Año: 2019-2020
Duración: 45 min.
País:
Estados Unidos
Dirección: Robert Kirkman (Creator), Frank Darabont, Greg Nicotero, Ernest R. Dickerson, Michael E. Satrazemis, David Boyd, Guy Ferland, Billy Gierhart, Michelle MacLaren, Tricia Brock, Seith Mann, Jeffrey F. January, Gwyneth Horder-Payton, Daniel Sackheim, Julius Ramsay, Jennifer Lynch, Alrick Riley, Johan Renck, Phil Abraham, Daniel Attias, Clark Johnson, Lesli Linka Glatter, Jeremy Podeswa, Stefan Schwartz, Michael Uppendahl, Larysa Kondracki, Michael Slovis, Stephen Williams, Avi Youabian, Darnell Martin, Rosemary Rodriguez, Kari Skogland, Dan Liu, John Polson, Larry Teng
Guion: Frank Darabont, Charles H. Eglee, Jack LoGuidice, Robert Kirkman, Glen Mazzara, Adam Fierro, Charlie Adlard, Tony Moore, Angela Kang, Scott M. Gimple, Matthew Negrete, Channing Powell, Corey Reed, Seth Hoffman, David Johnson, Evan T. Reilly, Nichole Beattie, Heather Bellson, Curtis Gwinn, Eddie Guzelian, Sang Kyu Kim, Frank Renzulli, Ryan C. Coleman (Cómic: Robert Kirkman, Tony Moore, Charlie Adlard)
Música: Bear McCreary
Fotografía: Michael E. Satrazemis, Ronn Schmidt, David Boyd, Stephen Campbell, David Tattersall, Duane Manwiller, Paul Varrieur
Reparto: Andrew Lincoln, Norman Reedus, Melissa Suzanne McBride, Lauren Cohan, Chandler Riggs, Danai Gurira, Jeffrey Dean Morgan, Yeun Steven, Sarah Wayne Callies, Sonequa Martin-Green, Jon Bernthal, Laurie Holden, Emily Kinney, David Morrissey, Austin Amelio, Tom Payne, Chad Coleman, Alanna Masterson, Michael Cudlitz, Scott Wilson, Jeffrey DeMunn, Christian Serratos, Josh McDermitt, Irone Singleton, Michael Rooker, Seth Gilliam, Dallas Roberts, Emma Bell, Brighton Sharbino, Kyla Kenedy, Denise Crosby, Andrew J. West, Tyler James Williams, Madison Lintz, Steven Ogg, Pollyanna McIntosh, Christine Evangelista, Xander Berkeley, Khary Payton, Christine Woods, Larry Gilliard Jr., Ross Marquand, Tovah Feldshuh, Alexandra Breckenridge, Austin Nichols, Katelyn Nacon, Brandon Fobbs, Aldis Hodge, Melissa Ponzio, Ann Mahoney, Corey Hawkins, Benedict Samuel, Noah Emmerich, Lennie James, Jason Douglas, Cassady McClincy, Samantha Morton, Nadia Hilker, Eleanor Matsuura, Rhys Coiro, Brett Butler
Productora: Emitida por AMC; Circle of Confusion / Valhalla Motion Pictures / Darkwoods Productions / AMC Studios / AMC / Idiot Box Productions
Género: Serie de TV. Terror. Ciencia ficción | Zombis. Futuro postapocalíptico. Gore. Cómic
Premios:
2010: Nominada al Globo de Oro: Mejor Serie de TV drama
2010: 3 nominaciones al Emmy: Mejor maquillaje, efectos visuales, montaje sonoro
2012: American Film Institute (AFI): Top 10 - Mejores Programas de TV del año
2010: American Film Institute (AFI): Top 10 - Mejores Programas de TV del año
2016: Critics Choice Awards: Mejor intérprete invitado (Dean Morgan)
2016: Satellite Awards: Nominada a mejor serie/miniserie de género
2015: Satellite Awards: Mejor serie/miniserie de género
2014: Satellite Awards: Nominada a mejor serie/miniserie de género
2013: Satellite Awards: Nominada a mejor serie/miniserie de género
2010: Sindicato de Directores (DGA): Nominada a Mejor director serie drama
2010: Sindicato de Guionistas (WGA): Nominada a Mejor guión en serie nueva
2017: Sindicato de Actores (SAG): Nominada a mejores especialistas de acción
2016: Sindicato de Actores (SGA): Nom. Mejores especialistas de acción (Serie TV)
2015: Sindicato de Actores (SAG): Nom. a Mejores especialistas de acción (Serie TV)
2014: Sindicato de Actores (SAG): Nom. a Mejores especialistas de acción (Serie TV)
2012: Sindicato de Actores (SAG): Nom. a Mejores especialistas de acción (Serie TV)

The Walking Dead: Season 10 (2019-2020)





Serie de TV (2010-Actualidad). Los supervivientes respetan el tratado con Alpha, lo que les ha mantenido a salvo hasta ahora. Un incendio provoca que salgan de su territorio designado y la líder anuncia el comienzo de una guerra contra los Susurradores. Ahora las comunidades tienen que prepararse para el posible enfrentamiento mientras sostienen su sociedad.​




[MEDIA]













Código:
General
Complete name                            : The Walking Dead (2019-2020) T10 E11 1080p AMZN WEB-DL Dual Latino-Inglés [Subt. Esp].mkv
Format                                   : Matroska
Format version                           : Version 4
File size                                : 3.31 GiB
Duration                                 : 45 min 0 s
Overall bit rate                         : 10.5 Mb/s
Movie name                               : The Walking Dead (2019-2020) T10 E11 1080p AMZN WEB-DL Dual Latino-Inglés [Subt. Esp]
Encoded date                             : UTC 2020-03-10 03:08:08
Writing application                      : mkvmerge v27.0.0 ('Metropolis') 64-bit
Writing library                          : libebml v1.3.6 + libmatroska v1.4.9

Video
ID                                       : 1
Format                                   : AVC
Format/Info                              : Advanced Video Codec
Format profile                           : High@L4
Format settings                          : CABAC / 4 Ref Frames
Format settings, CABAC                   : Yes
Format settings, Reference frames        : 4 frames
Codec ID                                 : V_MPEG4/ISO/AVC
Duration                                 : 44 min 59 s
Bit rate mode                            : Constant
Bit rate                                 : 10 000 kb/s
Width                                    : 1 920 pixels
Height                                   : 1 080 pixels
Display aspect ratio                     : 16:9
Frame rate mode                          : Constant
Frame rate                               : 23.976 (24000/1001) FPS
Color space                              : YUV
Chroma subsampling                       : 4:2:0
Bit depth                                : 8 bits
Scan type                                : Progressive
Bits/(Pixel*Frame)                       : 0.201
Stream size                              : 3.02 GiB (91%)
Title                                    : The Walking Dead (2019-2020) T10 E11 1080p AMZN WEB-DL Dual Latino-Inglés [Subt. Esp]
Language                                 : English
Default                                  : Yes
Forced                                   : No
Color range                              : Limited
Color primaries                          : BT.709
Transfer characteristics                 : BT.709
Matrix coefficients                      : BT.709

Audio #1
ID                                       : 2
Format                                   : AC-3
Format/Info                              : Audio Coding 3
Commercial name                          : Dolby Digital
Codec ID                                 : A_AC3
Duration                                 : 45 min 0 s
Bit rate mode                            : Constant
Bit rate                                 : 256 kb/s
Channel(s)                               : 2 channels
Channel layout                           : L R
Sampling rate                            : 48.0 kHz
Frame rate                               : 31.250 FPS (1536 SPF)
Compression mode                         : Lossy
Stream size                              : 82.4 MiB (2%)
Title                                    : Español latino AC3 2.0 - 256 Kbps
Language                                 : Spanish
Service kind                             : Complete Main
Default                                  : Yes
Forced                                   : No

Audio #2
ID                                       : 3
Format                                   : E-AC-3
Format/Info                              : Enhanced AC-3
Commercial name                          : Dolby Digital Plus
Codec ID                                 : A_EAC3
Duration                                 : 45 min 0 s
Bit rate mode                            : Constant
Bit rate                                 : 640 kb/s
Channel(s)                               : 6 channels
Channel layout                           : L R C LFE Ls Rs
Sampling rate                            : 48.0 kHz
Frame rate                               : 31.250 FPS (1536 SPF)
Compression mode                         : Lossy
Stream size                              : 206 MiB (6%)
Title                                    : Inglés EAC3 5.1 - 640 Kbps
Language                                 : English
Service kind                             : Complete Main
Default                                  : No
Forced                                   : No

Text
ID                                       : 4
Format                                   : UTF-8
Codec ID                                 : S_TEXT/UTF8
Codec ID/Info                            : UTF-8 Plain Text
Duration                                 : 43 min 10 s
Bit rate                                 : 38 b/s
Count of elements                        : 409
Stream size                              : 12.2 KiB (0%)
Title                                    : Subtítulo Español Latino Completo - SRT
Language                                 : Spanish
Default                                  : No
Forced                                   : No







Todos los links son Intercambiables!


Enlaces de Mega y Google Drive solo disponibles para Miembros VIP

Compra tu Membresía VIP y apoya a Club-HD!

ATENCIÓN! Tenemos TODO el material de Club-HD disponible por Mega y Google Drive, enlaces 100% activos y online hasta la fecha

Llévate tus cuentas Mega PRO II gratis con tu membresía VIP!
Todos los posts vivos con links de Mega y Google Drive.
Todo el material de Club-HD desbloqueado y sin publicidad.

Click Aquí para más información.

Enlaces de Mega y Google Drive solo disponibles para Miembros VIP

Compra tu Membresía VIP y apoya a Club-HD!

ATENCIÓN! Tenemos TODO el material de Club-HD disponible por Mega y Google Drive, enlaces 100% activos y online hasta la fecha

Llévate tus cuentas Mega PRO II gratis con tu membresía VIP!
Todos los posts vivos con links de Mega y Google Drive.
Todo el material de Club-HD desbloqueado y sin publicidad.

Click Aquí para más información.

Para ver este contenido oculto, debes dar click en una de las siguientes reacciones: Like Like, Love Love, Haha Haha, Wow Wow, Sad Sad, Angry Angry

Para ver este contenido oculto, debes dar click en una de las siguientes reacciones: Like Like, Love Love, Haha Haha, Wow Wow, Sad Sad, Angry Angry
 

kempes54

Well-known member
Miembro VIP
Registrado
28 Ago 2012
Mensajes
742
Puntos de reacción
320
Puntos
63
Excelente mi Flaco-Man.. muchas gracias!!
 

cripp

Well-known member
Registrado
27 Ago 2012
Mensajes
8,223
Puntos de reacción
497
Puntos
113
Gracias por compartir
 

El14mago

Well-known member
Miembro VIP
Registrado
10 Sep 2014
Mensajes
1,037
Puntos de reacción
53
Puntos
48
Edad
51
Gracias por el aporte.-
 

crack20

𝙀𝙡 𝙐𝙡𝙩𝙧𝙖 𝙄𝙣𝙨𝙩𝙞𝙣𝙩𝙤
Colaborador
Registrado
1 Jul 2015
Mensajes
682
Puntos de reacción
3,424
Puntos
93
Edad
27
Ubicación
惑星ベジータ
Sitio web
latinouhd.com
Muchas gracias Flaco, ya estoy al día con la serie pero me mata la intriga por saber que paso con Rick y Maggie
ojalá regresen pronto a la serie, extraño esos 2 personajes, no es lo mismo sin ellos.
 

flujo

Well-known member
Registrado
28 Dic 2014
Mensajes
6,955
Puntos de reacción
231
Puntos
83





Título original: The Walking Dead (TV Series)
Año: 2019-2020
Duración: 45 min.
País:
Estados Unidos
Dirección: Robert Kirkman (Creator), Frank Darabont, Greg Nicotero, Ernest R. Dickerson, Michael E. Satrazemis, David Boyd, Guy Ferland, Billy Gierhart, Michelle MacLaren, Tricia Brock, Seith Mann, Jeffrey F. January, Gwyneth Horder-Payton, Daniel Sackheim, Julius Ramsay, Jennifer Lynch, Alrick Riley, Johan Renck, Phil Abraham, Daniel Attias, Clark Johnson, Lesli Linka Glatter, Jeremy Podeswa, Stefan Schwartz, Michael Uppendahl, Larysa Kondracki, Michael Slovis, Stephen Williams, Avi Youabian, Darnell Martin, Rosemary Rodriguez, Kari Skogland, Dan Liu, John Polson, Larry Teng
Guion: Frank Darabont, Charles H. Eglee, Jack LoGuidice, Robert Kirkman, Glen Mazzara, Adam Fierro, Charlie Adlard, Tony Moore, Angela Kang, Scott M. Gimple, Matthew Negrete, Channing Powell, Corey Reed, Seth Hoffman, David Johnson, Evan T. Reilly, Nichole Beattie, Heather Bellson, Curtis Gwinn, Eddie Guzelian, Sang Kyu Kim, Frank Renzulli, Ryan C. Coleman (Cómic: Robert Kirkman, Tony Moore, Charlie Adlard)
Música: Bear McCreary
Fotografía: Michael E. Satrazemis, Ronn Schmidt, David Boyd, Stephen Campbell, David Tattersall, Duane Manwiller, Paul Varrieur
Reparto: Andrew Lincoln, Norman Reedus, Melissa Suzanne McBride, Lauren Cohan, Chandler Riggs, Danai Gurira, Jeffrey Dean Morgan, Yeun Steven, Sarah Wayne Callies, Sonequa Martin-Green, Jon Bernthal, Laurie Holden, Emily Kinney, David Morrissey, Austin Amelio, Tom Payne, Chad Coleman, Alanna Masterson, Michael Cudlitz, Scott Wilson, Jeffrey DeMunn, Christian Serratos, Josh McDermitt, Irone Singleton, Michael Rooker, Seth Gilliam, Dallas Roberts, Emma Bell, Brighton Sharbino, Kyla Kenedy, Denise Crosby, Andrew J. West, Tyler James Williams, Madison Lintz, Steven Ogg, Pollyanna McIntosh, Christine Evangelista, Xander Berkeley, Khary Payton, Christine Woods, Larry Gilliard Jr., Ross Marquand, Tovah Feldshuh, Alexandra Breckenridge, Austin Nichols, Katelyn Nacon, Brandon Fobbs, Aldis Hodge, Melissa Ponzio, Ann Mahoney, Corey Hawkins, Benedict Samuel, Noah Emmerich, Lennie James, Jason Douglas, Cassady McClincy, Samantha Morton, Nadia Hilker, Eleanor Matsuura, Rhys Coiro, Brett Butler
Productora: Emitida por AMC; Circle of Confusion / Valhalla Motion Pictures / Darkwoods Productions / AMC Studios / AMC / Idiot Box Productions
Género: Serie de TV. Terror. Ciencia ficción | Zombis. Futuro postapocalíptico. Gore. Cómic
Premios:
2010: Nominada al Globo de Oro: Mejor Serie de TV drama
2010: 3 nominaciones al Emmy: Mejor maquillaje, efectos visuales, montaje sonoro
2012: American Film Institute (AFI): Top 10 - Mejores Programas de TV del año
2010: American Film Institute (AFI): Top 10 - Mejores Programas de TV del año
2016: Critics Choice Awards: Mejor intérprete invitado (Dean Morgan)
2016: Satellite Awards: Nominada a mejor serie/miniserie de género
2015: Satellite Awards: Mejor serie/miniserie de género
2014: Satellite Awards: Nominada a mejor serie/miniserie de género
2013: Satellite Awards: Nominada a mejor serie/miniserie de género
2010: Sindicato de Directores (DGA): Nominada a Mejor director serie drama
2010: Sindicato de Guionistas (WGA): Nominada a Mejor guión en serie nueva
2017: Sindicato de Actores (SAG): Nominada a mejores especialistas de acción
2016: Sindicato de Actores (SGA): Nom. Mejores especialistas de acción (Serie TV)
2015: Sindicato de Actores (SAG): Nom. a Mejores especialistas de acción (Serie TV)
2014: Sindicato de Actores (SAG): Nom. a Mejores especialistas de acción (Serie TV)
2012: Sindicato de Actores (SAG): Nom. a Mejores especialistas de acción (Serie TV)

The Walking Dead: Season 10 (2019-2020)





Serie de TV (2010-Actualidad). Los supervivientes respetan el tratado con Alpha, lo que les ha mantenido a salvo hasta ahora. Un incendio provoca que salgan de su territorio designado y la líder anuncia el comienzo de una guerra contra los Susurradores. Ahora las comunidades tienen que prepararse para el posible enfrentamiento mientras sostienen su sociedad.​




[MEDIA]













Código:
General
Complete name                            : The Walking Dead (2019-2020) T10 E11 1080p AMZN WEB-DL Dual Latino-Inglés [Subt. Esp].mkv
Format                                   : Matroska
Format version                           : Version 4
File size                                : 3.31 GiB
Duration                                 : 45 min 0 s
Overall bit rate                         : 10.5 Mb/s
Movie name                               : The Walking Dead (2019-2020) T10 E11 1080p AMZN WEB-DL Dual Latino-Inglés [Subt. Esp]
Encoded date                             : UTC 2020-03-10 03:08:08
Writing application                      : mkvmerge v27.0.0 ('Metropolis') 64-bit
Writing library                          : libebml v1.3.6 + libmatroska v1.4.9

Video
ID                                       : 1
Format                                   : AVC
Format/Info                              : Advanced Video Codec
Format profile                           : High@L4
Format settings                          : CABAC / 4 Ref Frames
Format settings, CABAC                   : Yes
Format settings, Reference frames        : 4 frames
Codec ID                                 : V_MPEG4/ISO/AVC
Duration                                 : 44 min 59 s
Bit rate mode                            : Constant
Bit rate                                 : 10 000 kb/s
Width                                    : 1 920 pixels
Height                                   : 1 080 pixels
Display aspect ratio                     : 16:9
Frame rate mode                          : Constant
Frame rate                               : 23.976 (24000/1001) FPS
Color space                              : YUV
Chroma subsampling                       : 4:2:0
Bit depth                                : 8 bits
Scan type                                : Progressive
Bits/(Pixel*Frame)                       : 0.201
Stream size                              : 3.02 GiB (91%)
Title                                    : The Walking Dead (2019-2020) T10 E11 1080p AMZN WEB-DL Dual Latino-Inglés [Subt. Esp]
Language                                 : English
Default                                  : Yes
Forced                                   : No
Color range                              : Limited
Color primaries                          : BT.709
Transfer characteristics                 : BT.709
Matrix coefficients                      : BT.709

Audio #1
ID                                       : 2
Format                                   : AC-3
Format/Info                              : Audio Coding 3
Commercial name                          : Dolby Digital
Codec ID                                 : A_AC3
Duration                                 : 45 min 0 s
Bit rate mode                            : Constant
Bit rate                                 : 256 kb/s
Channel(s)                               : 2 channels
Channel layout                           : L R
Sampling rate                            : 48.0 kHz
Frame rate                               : 31.250 FPS (1536 SPF)
Compression mode                         : Lossy
Stream size                              : 82.4 MiB (2%)
Title                                    : Español latino AC3 2.0 - 256 Kbps
Language                                 : Spanish
Service kind                             : Complete Main
Default                                  : Yes
Forced                                   : No

Audio #2
ID                                       : 3
Format                                   : E-AC-3
Format/Info                              : Enhanced AC-3
Commercial name                          : Dolby Digital Plus
Codec ID                                 : A_EAC3
Duration                                 : 45 min 0 s
Bit rate mode                            : Constant
Bit rate                                 : 640 kb/s
Channel(s)                               : 6 channels
Channel layout                           : L R C LFE Ls Rs
Sampling rate                            : 48.0 kHz
Frame rate                               : 31.250 FPS (1536 SPF)
Compression mode                         : Lossy
Stream size                              : 206 MiB (6%)
Title                                    : Inglés EAC3 5.1 - 640 Kbps
Language                                 : English
Service kind                             : Complete Main
Default                                  : No
Forced                                   : No

Text
ID                                       : 4
Format                                   : UTF-8
Codec ID                                 : S_TEXT/UTF8
Codec ID/Info                            : UTF-8 Plain Text
Duration                                 : 43 min 10 s
Bit rate                                 : 38 b/s
Count of elements                        : 409
Stream size                              : 12.2 KiB (0%)
Title                                    : Subtítulo Español Latino Completo - SRT
Language                                 : Spanish
Default                                  : No
Forced                                   : No







Todos los links son Intercambiables!


[Hidden content]


[Hidden content]


[Hidden content]


[Hidden content]
gracias
 
  • Like
Reacciones: Max

ERRE

Well-known member
Registrado
28 Ago 2012
Mensajes
2,261
Puntos de reacción
183
Puntos
63
Gracias... 😁
 

Usuarios Que Están Viendo Este Tema (Total: 1, Miembros: 0, Invitados: 1)

Arriba