The Walking Dead: Season 11 E01-E04 (2021) 1080p Star+ WEB-DL Dual Latino-Inglés [Subt. Esp] (Serie de TV. Terror. Ciencia ficción)

Flaco

Well-known member
Uploader
Registro
25 May 2015
Mensajes
633
Reacciones
4.038
Puntos
93
Ubicación
Lima, Perú

Reputation:









Serie de TV (2010-Actualidad). Tras un apocalipsis zombie, un grupo de supervivientes, dirigidos por el policía Rick Grimes, recorre los Estados Unidos para ponerse a salvo. Aunque el leit motiv de la serie -cuyo episodio piloto fue dirigido y escrito por Frank Darabont- sea el apocalipsis zombie, la narración se centra más en las relaciones entre los personajes, su evolución y comportamiento en las situaciones críticas. Entre ellos destaca el ayudante del sheriff de un pueblo de Georgia que entró en coma durante la catástrofe.






Código:
General
Complete name                            : The Walking Dead S11E01 (2021) 1080p Star+ WEB-DL Dual Latino-Inglés [Subt. Esp].mkv
Format                                   : Matroska
Format version                           : Version 4
File size                                : 2.30 GiB
Duration                                 : 45 min 23 s
Overall bit rate mode                    : Variable
Overall bit rate                         : 7 249 kb/s
Movie name                               : The Walking Dead - S11E01 - Acheron Part I
Encoded date                             : UTC 2021-09-12 04:16:52
Writing application                      : mkvmerge v59.0.0 ('Shining Star') 64-bit
Writing library                          : libebml v1.4.2 + libmatroska v1.6.4
IMDB                                     : tt1520211
TMDB                                     : tv/1402

Video
ID                                       : 1
Format                                   : AVC
Format/Info                              : Advanced Video Codec
Format profile                           : High@L4
Format settings                          : CABAC / 4 Ref Frames
Format settings, CABAC                   : Yes
Format settings, Reference frames        : 4 frames
Codec ID                                 : V_MPEG4/ISO/AVC
Duration                                 : 45 min 23 s
Bit rate mode                            : Variable
Bit rate                                 : 6 734 kb/s
Maximum bit rate                         : 12.7 Mb/s
Width                                    : 1 920 pixels
Height                                   : 1 080 pixels
Display aspect ratio                     : 16:9
Frame rate mode                          : Constant
Frame rate                               : 23.976 (24000/1001) FPS
Color space                              : YUV
Chroma subsampling                       : 4:2:0
Bit depth                                : 8 bits
Scan type                                : Progressive
Bits/(Pixel*Frame)                       : 0.135
Stream size                              : 2.14 GiB (93%)
Title                                    : The Walking Dead S11E01 (2021) 1080p Star+ WEB-DL Dual Latino-Inglés [Subt. Esp]
Language                                 : English
Default                                  : Yes
Forced                                   : No
Color range                              : Limited
Color primaries                          : BT.709
Transfer characteristics                 : BT.709
Matrix coefficients                      : BT.709

Audio #1
ID                                       : 2
Format                                   : E-AC-3
Format/Info                              : Enhanced AC-3
Commercial name                          : Dolby Digital Plus
Codec ID                                 : A_EAC3
Duration                                 : 45 min 23 s
Bit rate mode                            : Constant
Bit rate                                 : 256 kb/s
Channel(s)                               : 6 channels
Channel layout                           : L R C LFE Ls Rs
Sampling rate                            : 48.0 kHz
Frame rate                               : 31.250 FPS (1536 SPF)
Compression mode                         : Lossy
Stream size                              : 83.1 MiB (4%)
Title                                    : Español Latino EAC3 5.1 - 256 Kbps (Star+)
Language                                 : Spanish
Service kind                             : Complete Main
Default                                  : Yes
Forced                                   : No

Audio #2
ID                                       : 3
Format                                   : E-AC-3
Format/Info                              : Enhanced AC-3
Commercial name                          : Dolby Digital Plus
Codec ID                                 : A_EAC3
Duration                                 : 45 min 23 s
Bit rate mode                            : Constant
Bit rate                                 : 256 kb/s
Channel(s)                               : 6 channels
Channel layout                           : L R C LFE Ls Rs
Sampling rate                            : 48.0 kHz
Frame rate                               : 31.250 FPS (1536 SPF)
Compression mode                         : Lossy
Stream size                              : 83.1 MiB (4%)
Title                                    : Inglés EAC3 5.1 - 256 Kbps (Star+)
Language                                 : English
Service kind                             : Complete Main
Default                                  : No
Forced                                   : No

Text #1
ID                                       : 4
Format                                   : UTF-8
Codec ID                                 : S_TEXT/UTF8
Codec ID/Info                            : UTF-8 Plain Text
Duration                                 : 36 min 36 s
Bit rate                                 : 1 b/s
Count of elements                        : 9
Stream size                              : 287 Bytes (0%)
Title                                    : Subtítulo Español Latino Forzado (Star+)
Language                                 : Spanish
Default                                  : Yes
Forced                                   : No

Text #2
ID                                       : 5
Format                                   : UTF-8
Codec ID                                 : S_TEXT/UTF8
Codec ID/Info                            : UTF-8 Plain Text
Duration                                 : 39 min 8 s
Bit rate                                 : 47 b/s
Count of elements                        : 451
Stream size                              : 13.7 KiB (0%)
Title                                    : Subtítulo Español Latino Completo (Star+)
Language                                 : Spanish
Default                                  : No
Forced                                   : No

Menu
00:09:08.131                             : Intro
00:09:51.091                             : Main
00:45:10.544                             : Credits


Este post se actualizará semanalmente conforme se sigan emitiendo los episodios restantes de esta temporada.

Añadido episodio 4.


























Todos los links son Intercambiables!

Episodio 01


Enlaces de Mega y Fireload solo disponibles para Miembros VIP

Compra tu Membresía VIP y apoya a Club-HD!

ATENCIÓN! Tenemos TODO el material de Club-HD disponible por Mega y Fireload, enlaces 100% activos y online hasta la fecha

Llévate tus cuentas Mega PRO II gratis con tu membresía VIP!
Todos los posts vivos con links de Mega y Fireload.
Todo el material de Club-HD desbloqueado y sin publicidad.

Click Aquí para más información.
Episodio 01


Enlaces de Mega y Fireload solo disponibles para Miembros VIP

Compra tu Membresía VIP y apoya a Club-HD!

ATENCIÓN! Tenemos TODO el material de Club-HD disponible por Mega y Fireload, enlaces 100% activos y online hasta la fecha

Llévate tus cuentas Mega PRO II gratis con tu membresía VIP!
Todos los posts vivos con links de Mega y Fireload.
Todo el material de Club-HD desbloqueado y sin publicidad.

Click Aquí para más información.
Episodio 01


Para ver este contenido oculto, debes dar click en una de las siguientes reacciones : Like Like, Love Love, Haha Haha, Wow Wow, Sad Sad, Angry Angry
Episodio 01


Para ver este contenido oculto, debes dar click en una de las siguientes reacciones : Like Like, Love Love, Haha Haha, Wow Wow, Sad Sad, Angry Angry
 
Última edición:

tolnainamur

Well-known member
Miembro VIP
Registro
25 Sep 2012
Mensajes
2.564
Reacciones
1.588
Puntos
113

Reputation:

Ja ja… Por el título yo creí que ya estaba la temporada completa.

Bueno, tocará entrar todas las semanas.
Mil gracias Flaco.
 

Usuarios Que Están Viendo Este Tema (Total: 1, Miembros: 0, Invitados: 1)

Arriba