The Wolverine (2013) EXTENDED 720p BDRip Dual Latino-Inglés [Subt. Esp] (Fantástico. Ciencia ficción. Acción)

Maestro Revolver

Well-known member
Miembro del Staff
Administrador
Registro
9 Ago 2012
Mensajes
3.567








TÍTULO ORIGINAL: The Wolverine (X-Men Origins: Wolverine 2)
AÑO: 2013
DURACIÓN: 126 min.
PAÍS: USA
DIRECTOR: James Mangold
GUIÓN: Scott Frank, Mark Bomback (Cómic: Frank Miller, Chris Claremont)
REPARTO: Hugh Jackman, Tao Okamoto, Rila Fukushima, Hiroyuki Sanada, Famke Janssen, Brian Tee, Svetlana Khodchenkova, Hal Yamanouchi, Will Yun Lee, Ken Yamamura, Shinji Ikefuji, Conrad Coleby, Taris Tyler, Kimi, Louis Toshio Okada, Hiroshi Kasuga
PRODUCTORA: Twentieth Century Fox Film Corporation / Marvel Entertainment / Dune Entertainment
GÉNERO: Fantástico. Ciencia ficción. Acción | Superhéroes. Cómic. Marvel Comics. Spin-off. Secuela. Samuráis. Ninjas
: http://www.imdb.com/title/tt1430132/






Un Logan amnésico busca respuestas sobre su pasado en el mundo del crimen organizado de Japón. Vulnerable por primera vez y desafiando sus límites físicos y emocionales, no sólo se enfrentará al letal acero samurái, también se verá en una lucha interna contra su propia inmortalidad que le volverá más fuerte.
























La pelicula NO tiene ninguna marca... solo colocamos el nombre de esta web en las capturas






Código:
General
Format                                   : Matroska
Format version                           : Version 2
File size                                : 4.87 GiB
Duration                                 : 2h 18mn
Overall bit rate                         : 5 040 Kbps
Movie name                               : www.club-hd.com
Encoded date                             : UTC 2013-11-08 15:52:23
Writing application                      : mkvmerge v5.7.0 ('The Whirlwind') built on Jul  8 2012 20:08:51
Writing library                          : libebml v1.2.3 + libmatroska v1.3.0

Video
ID                                       : 1
Format                                   : AVC
Format/Info                              : Advanced Video Codec
Format profile                           : High@L4.1
Format settings, CABAC                   : Yes
Format settings, ReFrames                : 5 frames
Codec ID                                 : V_MPEG4/ISO/AVC
Duration                                 : 2h 18mn
Bit rate                                 : 4 146 Kbps
Width                                    : 1 280 pixels
Height                                   : 536 pixels
Display aspect ratio                     : 2.40:1
Frame rate mode                          : Constant
Frame rate                               : 23.976 fps
Color space                              : YUV
Chroma subsampling                       : 4:2:0
Bit depth                                : 8 bits
Scan type                                : Progressive
Bits/(Pixel*Frame)                       : 0.252
Stream size                              : 3.90 GiB (80%)
Title                                    : www.club-hd.com
Writing library                          : x264 core 140 r2377 1ca7bb9
Language                                 : English
Default                                  : Yes
Forced                                   : No

Audio #1
ID                                       : 2
Format                                   : AC-3
Format/Info                              : Audio Coding 3
Mode extension                           : CM (complete main)
Format settings, Endianness              : Big
Codec ID                                 : A_AC3
Duration                                 : 2h 18mn
Bit rate mode                            : Constant
Bit rate                                 : 448 Kbps
Channel(s)                               : 6 channels
Channel positions                        : Front: L C R, Side: L R, LFE
Sampling rate                            : 48.0 KHz
Bit depth                                : 16 bits
Compression mode                         : Lossy
Stream size                              : 443 MiB (9%)
Title                                    : www.club-hd.com  >>  Latino
Language                                 : Spanish
Default                                  : Yes
Forced                                   : No

Audio #2
ID                                       : 3
Format                                   : AC-3
Format/Info                              : Audio Coding 3
Mode extension                           : CM (complete main)
Format settings, Endianness              : Big
Codec ID                                 : A_AC3
Duration                                 : 2h 18mn
Bit rate mode                            : Constant
Bit rate                                 : 448 Kbps
Channel(s)                               : 6 channels
Channel positions                        : Front: L C R, Side: L R, LFE
Sampling rate                            : 48.0 KHz
Bit depth                                : 16 bits
Compression mode                         : Lossy
Stream size                              : 443 MiB (9%)
Title                                    : www.club-hd.com  >>  Inglés
Language                                 : English
Default                                  : No
Forced                                   : No

Text #1
ID                                       : 4
Format                                   : UTF-8
Codec ID                                 : S_TEXT/UTF8
Codec ID/Info                            : UTF-8 Plain Text
Title                                    : Forzados
Language                                 : Spanish
Default                                  : Yes
Forced                                   : No

Text #2
ID                                       : 5
Format                                   : UTF-8
Codec ID                                 : S_TEXT/UTF8
Codec ID/Info                            : UTF-8 Plain Text
Title                                    : Completos
Language                                 : Spanish
Default                                  : No
Forced                                   : No

Menu
00:00:00.000                             : en:00:00:00.000
00:05:03.720                             : en:00:05:03.720
00:07:39.793                             : en:00:07:39.793
00:08:40.562                             : en:00:08:40.562
00:10:24.374                             : en:00:10:24.374
00:13:55.668                             : en:00:13:55.668
00:16:48.174                             : en:00:16:48.174
00:20:32.648                             : en:00:20:32.648
00:23:36.498                             : en:00:23:36.498
00:29:13.585                             : en:00:29:13.585
00:33:42.771                             : en:00:33:42.771
00:35:14.779                             : en:00:35:14.779
00:38:36.522                             : en:00:38:36.522
00:43:04.957                             : en:00:43:04.957
00:47:55.080                             : en:00:47:55.080
00:49:31.844                             : en:00:49:31.844
00:52:23.098                             : en:00:52:23.098
00:59:32.318                             : en:00:59:32.318
01:01:31.354                             : en:01:01:31.354
01:07:00.516                             : en:01:07:00.516
01:13:10.261                             : en:01:13:10.261
01:18:52.227                             : en:01:18:52.227
01:23:40.473                             : en:01:23:40.473
01:26:47.160                             : en:01:26:47.160
01:29:50.927                             : en:01:29:50.927
01:35:19.380                             : en:01:35:19.380
01:38:28.194                             : en:01:38:28.194
01:41:43.639                             : en:01:41:43.639
01:48:33.006                             : en:01:48:33.006
01:52:05.969                             : en:01:52:05.969
01:54:56.264                             : en:01:54:56.264
01:58:03.493                             : en:01:58:03.493
02:03:01.999                             : en:02:03:01.999
02:04:57.406                             : en:02:04:57.406
02:07:46.700                             : en:02:07:46.700
02:09:17.374                             : en:02:09:17.374








Enlaces de Mega y Google Drive solo disponibles para Miembros VIP

Compra tu Membresía VIP y apoya a Club-HD!

ATENCIÓN! Tenemos TODO el material de Club-HD disponible por Mega y Google Drive, enlaces 100% activos y online hasta la fecha

Llévate tus cuentas Mega PRO III gratis con tu membresía VIP!
Todos los posts vivos con links de Mega y Google Drive.
Todo el material de Club-HD desbloqueado y sin publicidad.

Click Aquí para más información.



Para ver este contenido oculto, debes dar click en una de las siguientes reacciones : Like Like, Love Love, Haha Haha, Wow Wow, Sad Sad, Angry Angry
 
Última edición por un moderador:

Usuarios Que Están Viendo Este Tema (Total: 1, Miembros: 0, Invitados: 1)

Quién Leyó Este Tema (Total Miembros: 1)

Arriba