This Is 40 (2012) m-720p Dual Latino-Inglés [Subt. Esp] (Comedia)

Maestro Revolver

Well-known member
Miembro del Staff
Administrador
Registro
9 Ago 2012
Mensajes
3.567

Rep:








TÍTULO ORIGINAL: This Is Forty (This Is 40)
AÑO: 2012
DURACIÓN: 134 min.
PAÍS: USA
DIRECTOR: Judd Apatow
GUIÓN: Judd Apatow
REPARTO: Paul Rudd, Leslie Mann, Chris O'Dowd, Jason Segel, Melissa McCarthy, Megan Fox, Albert Brooks, John Lithgow, Iris Apatow, Maude Apatow, Ryan Lee
PRODUCTORA: Apatow Productions
GÉNERO: Comedia | Spin-off

: http://www.imdb.com/title/tt1758830/






Pete vive con su esposa Debbie y sus dos hijas: Charlotte (Iris Apatow), de ocho años, y Sadie (Maude Apatow) de trece. Al mismo tiempo que lucha por mantener a flote su discográfica, tanto él como Debbie deben aprender a perdonar, a olvidar y a disfrutar de la vida. Spin-off de 'Lío embarazoso' (Knocked Up, 2007).
























La pelicula NO tiene ninguna marca... solo colocamos el nombre de esta web en las capturas






Código:
General
Format                                   : Matroska
Format version                           : Version 2
File size                                : 3.68 GiB
Duration                                 : 2h 17mn
Overall bit rate                         : 3 846 Kbps
Movie name                               : www.club-hd.com
Encoded date                             : UTC 2013-03-10 21:32:51
Writing application                      : mkvmerge v5.7.0 ('The Whirlwind') built on Jul  8 2012 20:08:51
Writing library                          : libebml v1.2.3 + libmatroska v1.3.0

Video
ID                                       : 1
Format                                   : AVC
Format/Info                              : Advanced Video Codec
Format profile                           : High@L4.1
Format settings, CABAC                   : Yes
Format settings, ReFrames                : 9 frames
Codec ID                                 : V_MPEG4/ISO/AVC
Duration                                 : 2h 17mn
Bit rate                                 : 2 756 Kbps
Width                                    : 1 280 pixels
Height                                   : 534 pixels
Display aspect ratio                     : 2.40:1
Frame rate mode                          : Constant
Frame rate                               : 23.976 fps
Color space                              : YUV
Chroma subsampling                       : 4:2:0
Bit depth                                : 8 bits
Scan type                                : Progressive
Bits/(Pixel*Frame)                       : 0.168
Stream size                              : 2.57 GiB (70%)
Title                                    : www.club-hd.com
Writing library                          : x264 core 130 r2273 b3065e6
Language                                 : English
Default                                  : Yes
Forced                                   : No

Audio #1
ID                                       : 2
Format                                   : AC-3
Format/Info                              : Audio Coding 3
Mode extension                           : CM (complete main)
Format settings, Endianness              : Big
Codec ID                                 : A_AC3
Duration                                 : 2h 17mn
Bit rate mode                            : Constant
Bit rate                                 : 448 Kbps
Channel(s)                               : 6 channels
Channel positions                        : Front: L C R, Side: L R, LFE
Sampling rate                            : 48.0 KHz
Bit depth                                : 16 bits
Compression mode                         : Lossy
Stream size                              : 439 MiB (12%)
Title                                    : www.club-hd.com  >>  Latino
Language                                 : Spanish
Default                                  : Yes
Forced                                   : No

Audio #2
ID                                       : 3
Format                                   : AC-3
Format/Info                              : Audio Coding 3
Mode extension                           : CM (complete main)
Format settings, Endianness              : Big
Codec ID                                 : A_AC3
Duration                                 : 2h 17mn
Bit rate mode                            : Constant
Bit rate                                 : 640 Kbps
Channel(s)                               : 6 channels
Channel positions                        : Front: L C R, Side: L R, LFE
Sampling rate                            : 48.0 KHz
Bit depth                                : 16 bits
Compression mode                         : Lossy
Stream size                              : 627 MiB (17%)
Title                                    : www.club-hd.com  >>  Inglés
Language                                 : English
Default                                  : No
Forced                                   : No

Text #1
ID                                       : 4
Format                                   : UTF-8
Codec ID                                 : S_TEXT/UTF8
Codec ID/Info                            : UTF-8 Plain Text
Title                                    : Forzados
Language                                 : Spanish
Default                                  : Yes
Forced                                   : No

Text #2
ID                                       : 5
Format                                   : UTF-8
Codec ID                                 : S_TEXT/UTF8
Codec ID/Info                            : UTF-8 Plain Text
Language                                 : Spanish
Default                                  : No
Forced                                   : No

Menu
00:00:00.000                             : en:Chapter 1
00:07:32.619                             : en:Chapter 2
00:15:42.859                             : en:Chapter 3
00:22:25.886                             : en:Chapter 4
00:27:25.394                             : en:Chapter 5
00:34:38.743                             : en:Chapter 6
00:41:24.857                             : en:Chapter 7
00:49:42.187                             : en:Chapter 8
00:57:42.959                             : en:Chapter 9
01:02:46.513                             : en:Chapter 10
01:08:22.306                             : en:Chapter 11
01:16:51.398                             : en:Chapter 12
01:26:47.244                             : en:Chapter 13
01:34:31.666                             : en:Chapter 14
01:41:20.199                             : en:Chapter 15
01:50:22.366                             : en:Chapter 16
01:55:39.432                             : en:Chapter 17
02:01:24.152                             : en:Chapter 18
02:07:32.728                             : en:Chapter 19
02:12:02.456                             : en:Chapter 20








Enlaces de Mega y Google Drive solo disponibles para Miembros VIP

Compra tu Membresía VIP y apoya a Club-HD!

ATENCIÓN! Tenemos TODO el material de Club-HD disponible por Mega y Google Drive, enlaces 100% activos y online hasta la fecha

Llévate tus cuentas Mega PRO III gratis con tu membresía VIP!
Todos los posts vivos con links de Mega y Google Drive.
Todo el material de Club-HD desbloqueado y sin publicidad.

Click Aquí para más información.



Para ver este contenido oculto, debes dar click en una de las siguientes reacciones : Like Like, Love Love, Haha Haha, Wow Wow, Sad Sad, Angry Angry
 
Última edición por un moderador:

Ezze

Well-known member
Miembro del Staff
Súper Moderador
Miembro VIP
Registro
28 Ago 2012
Mensajes
1.666
Ubicación
En la Torre de Observación

Rep:

Wow!! Otra de expectacular comedia.... Muchas gracias Revolver. Esta pelí será totalmente disfrutada :D:D:D Saludos
 

Mate78

Ladron de mi cerebro
Miembro del Staff
Súper Moderador
Miembro VIP
Registro
27 Ago 2012
Mensajes
1.244

Rep:

Chas gracias Bestia !!!!:dplgar:
 

Usuarios Que Están Viendo Este Tema (Total: 1, Miembros: 0, Invitados: 1)

Quién Leyó Este Tema (Total Miembros: 1)

Arriba