Thor: Love And Thunder (2022) 720p BDRip Dual Latino-Inglés [Subt. Esp] (Fantástico. Acción)

Bebesaurio

Novio de Vizard
Miembro del Staff
Moderador
Uploader
Miembro VIP
Registro
12 Mar 2018
Mensajes
1.027
Edad
23



Sinopsis

El Dios del Trueno (Chris Hemsworth) emprende un viaje que no se parece en nada a lo que se ha enfrentado hasta ahora: una búsqueda de la paz interior. Pero el retiro de Thor se ve interrumpido por un asesino galáctico conocido como Gorr el Carnicero de Dioses (Christian Bale), que busca la extinción de los dioses. Para hacer frente a la amenaza, Thor solicita la ayuda del Rey Valkiria (Tessa Thompson), de Korg (Taika Waititi) y de su ex novia Jane Foster (Natalie Portman) que, para sorpresa de Thor, empuña inexplicablemente su martillo mágico, Mjolnir, como la Poderosa Thor. Juntos, se embarcan en una aventura cósmica en la que tendrán que descubrir el misterio de la venganza del Carnicero de Dioses y detenerlo antes de que sea demasiado tarde.



MEDIAINFO
Código:
General
Unique ID                      : 73476500605041418973027426535751161828 (0x37470F2C79EB11CBFB19C7DEC23217E4)
Format                         : Matroska
Format version                 : Version 4
File size                      : 3.49 GiB
Duration                       : 1 h 58 min
Overall bit rate               : 4 209 kb/s
Encoded date                   : UTC 2022-09-17 17:02:26
Writing application            : mkvmerge v63.0.0 ('Everything') 64-bit
Writing library                : libebml v1.4.2 + libmatroska v1.6.4

Video
ID                             : 1
Format                         : AVC
Format/Info                    : Advanced Video Codec
Format profile                 : High@L4.1
Format settings                : CABAC / 12 Ref Frames
Format settings, CABAC         : Yes
Format settings, Reference fra : 12 frames
Codec ID                       : V_MPEG4/ISO/AVC
Duration                       : 1 h 58 min
Bit rate                       : 2 991 kb/s
Width                          : 1 280 pixels
Height                         : 536 pixels
Display aspect ratio           : 2.40:1
Frame rate mode                : Constant
Frame rate                     : 23.976 (24000/1001) FPS
Color space                    : YUV
Chroma subsampling             : 4:2:0
Bit depth                      : 8 bits
Scan type                      : Progressive
Bits/(Pixel*Frame)             : 0.182
Stream size                    : 2.48 GiB (71%)
Writing library                : x264 core 157 r2938 2b00a84 TnP@MTeam Mod
Encoding settings              : cabac=1 / ref=12 / deblock=1:-3:-3 / analyse=0x3:0x133 / me=umh / subme=10 / psy=1 / psy_rd=1.05:0.00 / mixed_ref=1 / me_range=32 / chroma_me=1 / trellis=2 / 8x8dct=1 / cqm=0 / deadzone=21,11 / fast_pskip=0 / chroma_qp_offset=-2 / threads=12 / lookahead_threads=2 / sliced_threads=0 / nr=0 / decimate=0 / interlaced=0 / bluray_compat=0 / constrained_intra=0 / bframes=8 / b_pyramid=2 / b_adapt=2 / b_bias=0 / direct=3 / weightb=1 / open_gop=0 / weightp=2 / keyint=250 / keyint_min=24 / scenecut=40 / intra_refresh=0 / rc_lookahead=250 / rc=crf / mbtree=0 / crf=16.8 / qcomp=0.60 / qpmin=0 / qpmax=69 / qpstep=4 / vbv_maxrate=62500 / vbv_bufsize=78125 / crf_max=0.0 / nal_hrd=none / filler=0 / ip_ratio=1.30 / pb_ratio=1.20 / aq=3:0.80
Language                       : English
Default                        : Yes
Forced                         : No
Color range                    : Limited
Color primaries                : BT.709
Matrix coefficients            : BT.709

Audio #1
ID                             : 2
Format                         : AC-3
Format/Info                    : Audio Coding 3
Commercial name                : Dolby Digital
Codec ID                       : A_AC3
Duration                       : 1 h 58 min
Bit rate mode                  : Constant
Bit rate                       : 576 kb/s
Channel(s)                     : 6 channels
Channel layout                 : L R C LFE Ls Rs
Sampling rate                  : 48.0 kHz
Frame rate                     : 31.250 FPS (1536 SPF)
Compression mode               : Lossy
Stream size                    : 489 MiB (14%)
Title                          : Latino AC3 5.1
Language                       : Spanish
Service kind                   : Complete Main
Default                        : Yes
Forced                         : No

Audio #2
ID                             : 3
Format                         : AC-3
Format/Info                    : Audio Coding 3
Commercial name                : Dolby Digital
Codec ID                       : A_AC3
Duration                       : 1 h 58 min
Bit rate mode                  : Constant
Bit rate                       : 640 kb/s
Channel(s)                     : 6 channels
Channel layout                 : L R C LFE Ls Rs
Sampling rate                  : 48.0 kHz
Frame rate                     : 31.250 FPS (1536 SPF)
Compression mode               : Lossy
Stream size                    : 544 MiB (15%)
Title                          : Inglés AC3 5.1
Language                       : English
Service kind                   : Complete Main
Default                        : Yes
Forced                         : No

Text #1
ID                             : 4
Format                         : UTF-8
Codec ID                       : S_TEXT/UTF8
Codec ID/Info                  : UTF-8 Plain Text
Duration                       : 1 h 43 min
Bit rate                       : 0 b/s
Count of elements              : 14
Stream size                    : 293 Bytes (0%)
Title                          : Forzados
Language                       : Spanish
Default                        : Yes
Forced                         : Yes

Text #2
ID                             : 5
Format                         : UTF-8
Codec ID                       : S_TEXT/UTF8
Codec ID/Info                  : UTF-8 Plain Text
Duration                       : 1 h 57 min
Bit rate                       : 55 b/s
Count of elements              : 1613
Stream size                    : 47.6 KiB (0%)
Title                          : Completos
Language                       : Spanish
Default                        : Yes
Forced                         : No

Menu
00:00:00.000                   : en:Chapter 01
00:06:45.155                   : en:Chapter 02
00:10:11.319                   : en:Chapter 03
00:14:23.780                   : en:Chapter 04
00:18:13.426                   : en:Chapter 05
00:20:59.508                   : en:Chapter 06
00:21:47.806                   : en:Chapter 07
00:27:00.994                   : en:Chapter 08
00:28:16.194                   : en:Chapter 09
00:29:52.249                   : en:Chapter 10
00:31:24.508                   : en:Chapter 11
00:35:15.113                   : en:Chapter 12
00:38:40.443                   : en:Chapter 13
00:45:37.443                   : en:Chapter 14
00:53:04.223                   : en:Chapter 15
01:06:19.392                   : en:Chapter 16
01:14:16.911                   : en:Chapter 17
01:24:35.821                   : en:Chapter 18
01:28:31.181                   : en:Chapter 19
01:30:19.998                   : en:Chapter 20
01:34:17.652                   : en:Chapter 21
01:38:12.678                   : en:Chapter 22
01:44:45.529                   : en:Chapter 23
01:48:17.616                   : en:Chapter 24
01:50:03.430                   : en:Chapter 25
01:51:14.710                   : en:Chapter 26

CAPTURAS





ENLACES VIP



Enlaces de Mega y Google Drive solo disponibles para Miembros VIP

Compra tu Membresía VIP y apoya a Club-HD!

ATENCIÓN! Tenemos TODO el material de Club-HD disponible por Mega y Google Drive, enlaces 100% activos y online hasta la fecha

Llévate tus cuentas Mega PRO III gratis con tu membresía VIP!
Todos los posts vivos con links de Mega y Google Drive.
Todo el material de Club-HD desbloqueado y sin publicidad.

Click Aquí para más información.
ENLACES FREE



Para ver este contenido oculto, debes dar click en una de las siguientes reacciones : Like Like, Love Love, Haha Haha, Wow Wow, Sad Sad, Angry Angry



Para ver este contenido oculto, debes dar click en una de las siguientes reacciones : Like Like, Love Love, Haha Haha, Wow Wow, Sad Sad, Angry Angry
CONTRASEÑA
Código:
www.club-hd.com
 

Usuarios Que Están Viendo Este Tema (Total: 1, Miembros: 0, Invitados: 1)

Arriba