Todo Sobre Mi Madre (1999) 720p BDRip Audio Español (Drama)

Max

Admin
Miembro del Staff
Administrador
Registro
8 Ago 2012
Mensajes
5.589
Reacciones
23.769
Puntos
113
Ubicación
Disco C

Reputation:





TÍTULO ORIGINAL: Todo sobre mi madre
AÑO: 1999
DURACIÓN: 105 min.
PAÍS: España
DIRECTOR: Pedro Almodóvar
GUIÓN: Pedro Almodóvar
MÚSICA: Alberto Iglesias
FOTOGRAFÍA: Affonso Beato
REPARTO: Cecilia Roth, Marisa Paredes, Penélope Cruz, Candela Peña, Antonia San Juan, Rosa María Sardá, Fernando Fernán-Gómez, Fernando Guillén, Toni Cantó, Eloy Azorín, Carlos Lozano, Cayetana Guillén Cuervo
PRODUCTORA: Coproducción España-Francia; El Deseo S.A. / Renn Productions / France 2 Cinema
PREMIOS:
1999: Oscar: Mejor película extranjera
1999: Globo de Oro: Mejor película extranjera
1999: Festival de Cannes: mejor director, Premio del Jurado Ecuménico
1999: 7 Goyas: incluyendo mejor película, director y actriz (Cecilia Roth). 14 nominaciones
1999: 2 premios BAFTA: Mejor director y película de habla no inglesa. 3 nominaciones
1999: Cesar: Mejor película extranjera
1999: Premios David di Donatello: Mejor película extranjera
1999: National Board of Review: Mejor película de habla no inglesa
1999: Círculo de críticos de Nueva York: Mejor película de habla no inglesa
1999: Premios Guldbagge (Suecia): Mejor película extranjera
GÉNERO: Drama | Melodrama. Teatro. Drama social

http://www.imdb.com/title/tt0185125/?ref_=fn_al_tt_1






Madrid. Manuela, una madre soltera, ve cómo su hijo muere el día en que cumple 17 años, por correr para conseguir el autógrafo de su actriz favorita. Decide entonces viajar a Barcelona en busca del padre de su hijo, un travestido llamado Lola, que ignoraba que tenía un hijo. Encuentra también a su amigo Agrado, otro travesti, y a través de él conoce a Rosa, una monja española y, por pura casualidad, Manuela termina convirtiéndose en la asistente de Huma Rojo, la actriz que admiraba su hijo.































Código:
General
Complete name                            : Todo Sobre Mi Madre (1999) 720p BDRip Audio Español.mkv
Format                                   : Matroska
Format version                           : Version 4 / Version 2
File size                                : 4.26 GiB
Duration                                 : 1h 41mn
Overall bit rate                         : 5 998 Kbps
Movie name                               : www.club-hd.com --> Todo Sobre Mi Madre (1999) 720p BDRip Audio Español
Encoded date                             : UTC 2010-02-22 21:41:31
Writing application                      : mkvmerge v5.9.0 ('On The Loose') built on Dec  9 2012 15:37:01
Writing library                          : libebml v1.3.0 + libmatroska v1.4.0

Video
ID                                       : 1
Format                                   : AVC
Format/Info                              : Advanced Video Codec
Format profile                           : High@L4.1
Format settings, CABAC                   : Yes
Format settings, ReFrames                : 12 frames
Codec ID                                 : V_MPEG4/ISO/AVC
Duration                                 : 1h 41mn
Bit rate                                 : 5 549 Kbps
Width                                    : 1 280 pixels
Height                                   : 546 pixels
Display aspect ratio                     : 2.35:1
Frame rate mode                          : Constant
Frame rate                               : 23.976 fps
Color space                              : YUV
Chroma subsampling                       : 4:2:0
Bit depth                                : 8 bits
Scan type                                : Progressive
Bits/(Pixel*Frame)                       : 0.331
Stream size                              : 3.85 GiB (91%)
Title                                    : www.club-hd.com --> Todo Sobre Mi Madre (1999) 720p BDRip Audio Español
Writing library                          : x264 core 114 r1913 5fd3dce
Encoding settings                        : cabac=1 / ref=12 / deblock=1:-3:-3 / analyse=0x3:0x113 / me=umh / subme=9 / psy=1 / psy_rd=1.10:0.15 / mixed_ref=1 / me_range=32 / chroma_me=1 / trellis=2 / 8x8dct=1 / cqm=2 / deadzone=21,11 / fast_pskip=0 / chroma_qp_offset=-2 / threads=6 / sliced_threads=0 / nr=0 / decimate=1 / interlaced=0 / constrained_intra=0 / bframes=5 / b_pyramid=2 / b_adapt=2 / b_bias=0 / direct=3 / weightb=1 / open_gop=0 / weightp=2 / keyint=250 / keyint_min=23 / scenecut=40 / intra_refresh=0 / rc_lookahead=60 / rc=2pass / mbtree=1 / bitrate=5549 / ratetol=1.0 / qcomp=0.60 / qpmin=1 / qpmax=63 / qpstep=4 / cplxblur=20.0 / qblur=0.5 / vbv_maxrate=40000 / vbv_bufsize=30000 / nal_hrd=none / ip_ratio=1.40 / aq=1:0.80
Language                                 : Spanish
Default                                  : Yes
Forced                                   : No

Audio
ID                                       : 2
Format                                   : AC-3
Format/Info                              : Audio Coding 3
Mode extension                           : CM (complete main)
Format settings, Endianness              : Big
Codec ID                                 : A_AC3
Duration                                 : 1h 41mn
Bit rate mode                            : Constant
Bit rate                                 : 448 Kbps
Channel(s)                               : 6 channels
Channel positions                        : Front: L C R, Side: L R, LFE
Sampling rate                            : 48.0 KHz
Bit depth                                : 16 bits
Compression mode                         : Lossy
Stream size                              : 326 MiB (7%)
Title                                    : Todo Sobre Mi Madre (1999) - Español AC3 5.1
Language                                 : Spanish
Default                                  : Yes
Forced                                   : No










Enlaces de Mega y Fireload solo disponibles para Miembros VIP

Compra tu Membresía VIP y apoya a Club-HD!

ATENCIÓN! Tenemos TODO el material de Club-HD disponible por Mega y Fireload, enlaces 100% activos y online hasta la fecha

Llévate tus cuentas Mega PRO II gratis con tu membresía VIP!
Todos los posts vivos con links de Mega y Fireload.
Todo el material de Club-HD desbloqueado y sin publicidad.

Click Aquí para más información.




Enlaces de Mega y Fireload solo disponibles para Miembros VIP

Compra tu Membresía VIP y apoya a Club-HD!

ATENCIÓN! Tenemos TODO el material de Club-HD disponible por Mega y Fireload, enlaces 100% activos y online hasta la fecha

Llévate tus cuentas Mega PRO II gratis con tu membresía VIP!
Todos los posts vivos con links de Mega y Fireload.
Todo el material de Club-HD desbloqueado y sin publicidad.

Click Aquí para más información.



Para ver este contenido oculto, debes dar click en una de las siguientes reacciones : Like Like, Love Love, Haha Haha, Wow Wow, Sad Sad, Angry Angry
 
Última edición por un moderador:

yorsh73

New member
Registro
27 Ago 2012
Mensajes
33
Reacciones
1
Puntos
0
Ubicación
México

Reputation:

Excelente película y aporte, una de tantas de las mejores de Almodovar, ojala que en un futuro tengan contemplado subir "La Flor de mi Secreto" tambien de Almodovar. Gracias!!!
 

Nosferatu

Well-known member
Súper Moderador
Registro
31 Ago 2012
Mensajes
2.275
Reacciones
1.362
Puntos
113
Edad
44
Ubicación
Welcome to Hell!!

Reputation:

Gracias Maestro de Maestros, las películas de Pedro Almodóvar son muy buenas.:aplausos:

Gracias Master MAX!
 

Temas Similares

Usuarios Que Están Viendo Este Tema (Total: 1, Miembros: 0, Invitados: 1)

Arriba