Top Gun Maverick (2022) IMAX 1080p AMZN WEB-DL Dual Latino-Inglés [Subt. Esp]

Bebesaurio

Novio de Vizard
Miembro del Staff
Moderador
Uploader
Miembro VIP
Registro
12 Mar 2018
Mensajes
1.027
Edad
23



Sinopsis

Después de más de treinta años de servicio como uno de los mejores aviadores de la Armada, Pete "Maverick" Mitchell está en donde pertenece, sobresaliendo como un valiente piloto de pruebas y evitando subir de rango en la armada, que evitaría que pudiera seguir volando. Cuando se encuentra entrenando a un destacamento de graduados de Top Gun para una misión especial que ningún piloto vivo ha visto antes, Maverick se encuentra con el teniente Bradley Bradshaw, señal de llamada: "Rooster", el hijo del difunto amigo de Maverick y el oficial de intercepción de radar, el teniente Nick Bradshaw, también conocido como "Goose".


TRAILER


MEDIAINFO
Código:
General
Unique ID                      : 325313947875952876529791599091093637143 (0xF4BD2FF6706A6AAC131A3971064C8817)
Format                         : Matroska
Format version                 : Version 4
File size                      : 7.67 GiB
Duration                       : 2 h 10 min
Overall bit rate               : 8 428 kb/s
Encoded date                   : UTC 2022-08-23 03:21:33
Writing application            : mkvmerge v63.0.0 ('Everything') 64-bit
Writing library                : libebml v1.4.2 + libmatroska v1.6.4

Video
ID                             : 1
Format                         : AVC
Format/Info                    : Advanced Video Codec
Format profile                 : High@L4
Format settings                : CABAC / 4 Ref Frames
Format settings, CABAC         : Yes
Format settings, Reference fra : 4 frames
Codec ID                       : V_MPEG4/ISO/AVC
Duration                       : 2 h 10 min
Bit rate mode                  : Constant
Bit rate                       : 7 402 kb/s
Nominal bit rate               : 10 000 kb/s
Width                          : 1 920 pixels
Height                         : 1 040 pixels
Display aspect ratio           : 1.85:1
Frame rate mode                : Constant
Frame rate                     : 23.976 (24000/1001) FPS
Color space                    : YUV
Chroma subsampling             : 4:2:0
Bit depth                      : 8 bits
Scan type                      : Progressive
Bits/(Pixel*Frame)             : 0.155
Stream size                    : 6.73 GiB (88%)
Language                       : English
Default                        : Yes
Forced                         : No
Color range                    : Limited
Color primaries                : BT.709
Transfer characteristics       : BT.709
Matrix coefficients            : BT.709

Audio #1
ID                             : 2
Format                         : E-AC-3
Format/Info                    : Enhanced AC-3
Commercial name                : Dolby Digital Plus
Codec ID                       : A_EAC3
Duration                       : 2 h 10 min
Bit rate mode                  : Constant
Bit rate                       : 384 kb/s
Channel(s)                     : 6 channels
Channel layout                 : L R C LFE Ls Rs
Sampling rate                  : 48.0 kHz
Frame rate                     : 31.250 FPS (1536 SPF)
Compression mode               : Lossy
Stream size                    : 358 MiB (5%)
Title                          : Latino E-AC3 5.1
Language                       : Spanish
Service kind                   : Complete Main
Default                        : Yes
Forced                         : Yes

Audio #2
ID                             : 3
Format                         : E-AC-3
Format/Info                    : Enhanced AC-3
Commercial name                : Dolby Digital Plus
Codec ID                       : A_EAC3
Duration                       : 2 h 10 min
Bit rate mode                  : Constant
Bit rate                       : 640 kb/s
Channel(s)                     : 6 channels
Channel layout                 : L R C LFE Ls Rs
Sampling rate                  : 48.0 kHz
Frame rate                     : 31.250 FPS (1536 SPF)
Compression mode               : Lossy
Stream size                    : 596 MiB (8%)
Title                          : E-AC3 5.1
Language                       : English
Service kind                   : Complete Main
Default                        : No
Forced                         : No

Text #1
ID                             : 4
Format                         : UTF-8
Codec ID                       : S_TEXT/UTF8
Codec ID/Info                  : UTF-8 Plain Text
Duration                       : 2 h 1 min
Bit rate                       : 56 b/s
Count of elements              : 1568
Stream size                    : 50.5 KiB (0%)
Language                       : English
Default                        : Yes
Forced                         : No

Text #2
ID                             : 5
Format                         : UTF-8
Codec ID                       : S_TEXT/UTF8
Codec ID/Info                  : UTF-8 Plain Text
Duration                       : 2 h 9 min
Bit rate                       : 0 b/s
Count of elements              : 15
Stream size                    : 628 Bytes (0%)
Title                          : Forzados
Language                       : Spanish
Default                        : Yes
Forced                         : Yes

Text #3
ID                             : 6
Format                         : UTF-8
Codec ID                       : S_TEXT/UTF8
Codec ID/Info                  : UTF-8 Plain Text
Duration                       : 2 h 9 min
Bit rate                       : 0 b/s
Count of elements              : 30
Stream size                    : 959 Bytes (0%)
Title                          : Completos
Language                       : Spanish
Default                        : No

CAPTURAS





ENLACES VIP




Enlaces de Mega y Google Drive solo disponibles para Miembros VIP

Compra tu Membresía VIP y apoya a Club-HD!

ATENCIÓN! Tenemos TODO el material de Club-HD disponible por Mega y Google Drive, enlaces 100% activos y online hasta la fecha

Llévate tus cuentas Mega PRO III gratis con tu membresía VIP!
Todos los posts vivos con links de Mega y Google Drive.
Todo el material de Club-HD desbloqueado y sin publicidad.

Click Aquí para más información.
ENLACES FREE




Para ver este contenido oculto, debes dar click en una de las siguientes reacciones : Like Like, Love Love, Haha Haha, Wow Wow, Sad Sad, Angry Angry






Para ver este contenido oculto, debes dar click en una de las siguientes reacciones : Like Like, Love Love, Haha Haha, Wow Wow, Sad Sad, Angry Angry

CONTRASEÑA
Código:
www.club-hd.com
 

Usuarios Que Están Viendo Este Tema (Total: 1, Miembros: 0, Invitados: 1)

Quién Leyó Este Tema (Total Miembros: 253)

Arriba