Total Recall (2012) EXTENDED m-720p Dual Latino-Inglés [Subt. Esp-Ing] (Ciencia ficción. Acción)

Maestro Revolver

Well-known member
Miembro del Staff
Administrador
Registro
9 Ago 2012
Mensajes
3.569
Reacciones
59.361
Puntos
113

Reputation:









TÍTULO ORIGINAL: Total Recall
AÑO: 2012
DURACIÓN: 121 min.
PAÍS: USA
DIRECTOR: Len Wiseman
GUIÓN: Kurt Wimmer (Historia corta: Philip K. Dick)
REPARTO: Colin Farrell, Kate Beckinsale, Jessica Biel, Bryan Cranston, Bill Nighy, John Cho, Bokeem Woodbine, Steve Byers, Will Yun Lee, Currie Graham, Brooks Darnell
PRODUCTORA: Columbia Pictures / Original Film
GÉNERO: Ciencia ficción. Acción | Remake
: http://www.imdb.com/title/tt1386703/






Rekall es una empresa que puede convertir los sueños en recuerdos reales, haciendo que la frontera entre realidad y memoria se difumine. Para Douglas Quaid (Colin Farrell) la idea de hacer un viaje mental que le proporcione recuerdos de una vida como superespía puede ser la solución perfecta para contrarrestar su frustrante vida. Lo malo es que el proceso sale mal, y Quaid se convierte en un hombre perseguido por los agentes de un estado totalitario. En su huida, se asocia con una combatiente rebelde (Jessica Biel) con el fin de encontrar al cabecilla de la resistencia clandestina (Bill Nighy). Mientras el destino del mundo pende de un hilo, Quaid descubre su verdadera identidad y su verdadero destino. Se inspira en el cuento "Podemos recordar por usted al por mayor" de Philip K. Dick.
























La pelicula NO tiene ninguna marca... solo colocamos el nombre de esta web en las capturas






Código:
General
Format                                   : Matroska
Format version                           : Version 2
File size                                : 3.59 GiB
Duration                                 : 2h 10mn
Overall bit rate                         : 3 942 Kbps
Movie name                               : www.club-hd.com
Encoded date                             : UTC 2012-11-27 15:38:49
Writing application                      : mkvmerge v5.7.0 ('The Whirlwind') built on Jul  8 2012 20:08:51
Writing library                          : libebml v1.2.3 + libmatroska v1.3.0

Video
ID                                       : 1
Format                                   : AVC
Format/Info                              : Advanced Video Codec
Format profile                           : High@L4.1
Format settings, CABAC                   : Yes
Format settings, ReFrames                : 8 frames
Codec ID                                 : V_MPEG4/ISO/AVC
Duration                                 : 2h 10mn
Bit rate                                 : 2 660 Kbps
Width                                    : 1 280 pixels
Height                                   : 534 pixels
Display aspect ratio                     : 2.40:1
Frame rate mode                          : Constant
Frame rate                               : 23.976 fps
Color space                              : YUV
Chroma subsampling                       : 4:2:0
Bit depth                                : 8 bits
Scan type                                : Progressive
Bits/(Pixel*Frame)                       : 0.162
Stream size                              : 2.35 GiB (66%)
Title                                    : www.club-hd.com
Writing library                          : x264 core 128 r2216 198a7ea
Language                                 : English
Default                                  : Yes
Forced                                   : No

Audio #1
ID                                       : 2
Format                                   : AC-3
Format/Info                              : Audio Coding 3
Mode extension                           : CM (complete main)
Format settings, Endianness              : Big
Codec ID                                 : A_AC3
Duration                                 : 2h 10mn
Bit rate mode                            : Constant
Bit rate                                 : 640 Kbps
Channel(s)                               : 6 channels
Channel positions                        : Front: L C R, Side: L R, LFE
Sampling rate                            : 48.0 KHz
Bit depth                                : 16 bits
Compression mode                         : Lossy
Stream size                              : 596 MiB (16%)
Title                                    : www.club-hd.com  >>  Latino
Language                                 : Spanish
Default                                  : Yes
Forced                                   : No

Audio #2
ID                                       : 3
Format                                   : AC-3
Format/Info                              : Audio Coding 3
Mode extension                           : CM (complete main)
Format settings, Endianness              : Big
Codec ID                                 : A_AC3
Duration                                 : 2h 10mn
Bit rate mode                            : Constant
Bit rate                                 : 640 Kbps
Channel(s)                               : 6 channels
Channel positions                        : Front: L C R, Side: L R, LFE
Sampling rate                            : 48.0 KHz
Bit depth                                : 16 bits
Compression mode                         : Lossy
Stream size                              : 596 MiB (16%)
Title                                    : www.club-hd.com  >>  Inglés
Language                                 : English
Default                                  : No
Forced                                   : No

Text #1
ID                                       : 4
Format                                   : UTF-8
Codec ID                                 : S_TEXT/UTF8
Codec ID/Info                            : UTF-8 Plain Text
Title                                    : Forzados
Language                                 : Spanish
Default                                  : Yes
Forced                                   : No

Text #2
ID                                       : 5
Format                                   : UTF-8
Codec ID                                 : S_TEXT/UTF8
Codec ID/Info                            : UTF-8 Plain Text
Language                                 : Spanish
Default                                  : No
Forced                                   : No

Text #3
ID                                       : 6
Format                                   : UTF-8
Codec ID                                 : S_TEXT/UTF8
Codec ID/Info                            : UTF-8 Plain Text
Language                                 : English
Default                                  : No
Forced                                   : No

Menu
00:00:00.000                             : en:Chapter 1
00:08:45.775                             : en:Chapter 2
00:18:00.705                             : en:Chapter 3
00:24:13.243                             : en:Chapter 4
00:31:19.878                             : en:Chapter 5
00:39:54.267                             : en:Chapter 6
00:45:38.819                             : en:Chapter 7
00:49:45.607                             : en:Chapter 8
00:58:12.280                             : en:Chapter 9
01:05:40.186                             : en:Chapter 10
01:15:06.960                             : en:Chapter 11
01:21:05.110                             : en:Chapter 12
01:27:23.112                             : en:Chapter 13
01:37:45.776                             : en:Chapter 14
01:43:17.649                             : en:Chapter 15
01:51:29.682                             : en:Chapter 16




Sin Contraseña | Simple Extracción





Links Intercambiables





Enlaces de Mega y Fireload solo disponibles para Miembros VIP

Compra tu Membresía VIP y apoya a Club-HD!

ATENCIÓN! Tenemos TODO el material de Club-HD disponible por Mega y Fireload, enlaces 100% activos y online hasta la fecha

Llévate tus cuentas Mega PRO II gratis con tu membresía VIP!
Todos los posts vivos con links de Mega y Fireload.
Todo el material de Club-HD desbloqueado y sin publicidad.

Click Aquí para más información.



Enlaces de Mega y Fireload solo disponibles para Miembros VIP

Compra tu Membresía VIP y apoya a Club-HD!

ATENCIÓN! Tenemos TODO el material de Club-HD disponible por Mega y Fireload, enlaces 100% activos y online hasta la fecha

Llévate tus cuentas Mega PRO II gratis con tu membresía VIP!
Todos los posts vivos con links de Mega y Fireload.
Todo el material de Club-HD desbloqueado y sin publicidad.

Click Aquí para más información.


Para ver este contenido oculto, debes dar click en una de las siguientes reacciones : Like Like, Love Love, Haha Haha, Wow Wow, Sad Sad, Angry Angry



 
Última edición:

MIKECABJ

New member
Registro
28 Ago 2012
Mensajes
333
Reacciones
5
Puntos
0

Reputation:

Super!!!! A bajar ya...!!!!!!!!!!!!! Graciassssss........
 

elgrandario

Well-known member
Registro
29 Ago 2012
Mensajes
1.006
Reacciones
147
Puntos
63
Ubicación
Lima, Perú

Reputation:

A la lista de descarga! Gracias, aunque ya tengo la versión en inglés, pero a descargar se ha dicho!
 

CentralOne

New member
Registro
31 Ago 2012
Mensajes
262
Reacciones
1
Puntos
0

Reputation:

Desc_g_ q mala onda q ya no suben los audios por separado para no tener q descargar todo de nuevo. Creo q me perdi un post donde explicaron por q ya no los ponen. Pero ni modo, se agradece el entretenimiento que me aportan!! Mil gracias.
 

Usuarios Que Están Viendo Este Tema (Total: 1, Miembros: 0, Invitados: 1)

Arriba