Toy Story 3 (2010) 1080p BDRip Dual Latino-Inglés [Subt. Esp] (Animación)

Maestro Revolver

Well-known member
Miembro del Staff
Administrador
Registro
9 Ago 2012
Mensajes
3.569
Reacciones
59.341
Puntos
113

Reputation:


Aporte Recuperado gracias a nuestro amigo HemoAr







TÍTULO ORIGINAL: Toy Story 3
AÑO: 2010
DURACIÓN: 103 min.
PAÍS: USA
DIRECTOR: Lee Unkrich
GUIÓN: Michael Arndt
REPARTO: Animation
PRODUCTORA: Pixar Animation Studios / Walt Disney Pictures
GÉNERO: Animación. Fantástico. Aventuras. Comedia. Infantil | Secuela. 3-D






Cuando su dueño Andy se prepara para ir a la universidad, el vaquero Woody, el astronauta Buzz y el resto de sus amigos juguetes comienzan a preocuparse por su incierto futuro. Efectivamente todos acaban en una guardería, donde por ejemplo la muñeca Barbie conocerá al guapo Ken. Esta reunión de nuestros amigos con otros nuevos juguetes no será sino el principio de una serie de trepidantes y divertidas aventuras.




















La pelicula NO tiene ninguna marca... solo coloque mi nombre de usuario en las capturas






Código:
General
Complete name                            : Toy Story 3 (2010) 1080p BDRip Dual Latino-Inglés [Subt. Esp].mkv
Format                                   : Matroska
Format version                           : Version 4 / Version 2
File size                                : 2.18 GiB
Duration                                 : 1h 43mn
Overall bit rate                         : 3 016 Kbps
Movie name                               : www.club-hd.com -> Toy Story 3 (2010) 1080p BDRip Dual Latino-Inglés [Subt. Esp]
Encoded date                             : UTC 2015-06-08 23:21:29
Writing application                      : mkvmerge v7.8.0 ('River Man') 64bit built on Mar 27 2015 16:31:37
Writing library                          : libebml v1.3.1 + libmatroska v1.4.2

Video
ID                                       : 1
Format                                   : AVC
Format/Info                              : Advanced Video Codec
Format profile                           : Main@L4.0
Format settings, CABAC                   : Yes
Format settings, ReFrames                : 2 frames
Codec ID                                 : V_MPEG4/ISO/AVC
Duration                                 : 1h 43mn
Bit rate                                 : 2 188 Kbps
Width                                    : 1 920 pixels
Height                                   : 1 080 pixels
Display aspect ratio                     : 16:9
Frame rate mode                          : Constant
Frame rate                               : 23.202 fps
Original frame rate                      : 24.000 fps
Color space                              : YUV
Chroma subsampling                       : 4:2:0
Bit depth                                : 8 bits
Scan type                                : Progressive
Bits/(Pixel*Frame)                       : 0.045
Stream size                              : 1.58 GiB (73%)
Title                                    : Toy Story 3 (2010) 1080p BDRip Dual Latino-Inglés [Subt. Esp]
Writing library                          : x264 core 79
Encoding settings                        : cabac=1 / ref=2 / deblock=1:0:0 / analyse=0x1:0x111 / me=hex / subme=6 / psy=1 / psy_rd=1.0:0.0 / mixed_ref=0 / me_range=16 / chroma_me=1 / trellis=0 / 8x8dct=0 / cqm=0 / deadzone=21,11 / chroma_qp_offset=-2 / threads=3 / nr=0 / decimate=1 / mbaff=0 / constrained_intra=0 / bframes=2 / b_pyramid=0 / b_adapt=1 / b_bias=0 / direct=1 / wpredb=0 / wpredp=2 / keyint=240 / keyint_min=24 / scenecut=40 / rc_lookahead=40 / rc=crf / mbtree=1 / crf=25.0 / qcomp=0.60 / qpmin=10 / qpmax=51 / qpstep=4 / ip_ratio=1.40 / aq=1:1.00
Language                                 : English
Default                                  : Yes
Forced                                   : No
Color primaries                          : BT.709
Transfer characteristics                 : BT.709
Matrix coefficients                      : BT.709

Audio #1
ID                                       : 2
Format                                   : AC-3
Format/Info                              : Audio Coding 3
Mode extension                           : CM (complete main)
Format settings, Endianness              : Big
Codec ID                                 : A_AC3
Duration                                 : 1h 43mn
Bit rate mode                            : Constant
Bit rate                                 : 384 Kbps
Channel(s)                               : 6 channels
Channel positions                        : Front: L C R, Side: L R, LFE
Sampling rate                            : 48.0 KHz
Bit depth                                : 16 bits
Compression mode                         : Lossy
Stream size                              : 285 MiB (13%)
Title                                    : Toy Story 3 (2010) - Español Latino AC3 5.1
Language                                 : Spanish
Default                                  : Yes
Forced                                   : No

Audio #2
ID                                       : 3
Format                                   : AC-3
Format/Info                              : Audio Coding 3
Mode extension                           : CM (complete main)
Format settings, Endianness              : Big
Codec ID                                 : A_AC3
Duration                                 : 1h 43mn
Bit rate mode                            : Constant
Bit rate                                 : 384 Kbps
Channel(s)                               : 6 channels
Channel positions                        : Front: L C R, Side: L R, LFE
Sampling rate                            : 48.0 KHz
Bit depth                                : 16 bits
Compression mode                         : Lossy
Stream size                              : 285 MiB (13%)
Title                                    : Toy Story 3 (2010) - Inglés AC3 5.1
Language                                 : English
Default                                  : No
Forced                                   : No

Text
ID                                       : 4
Format                                   : UTF-8
Codec ID                                 : S_TEXT/UTF8
Codec ID/Info                            : UTF-8 Plain Text
Title                                    : Toy Story 3 (2010) - Subtítulos Español
Language                                 : Spanish
Default                                  : No
Forced                                   : No

Menu
00:00:00.000                             : en:Video Start
00:05:00.000                             : en:Chapter 1 - 00 Hr 05 Min
00:10:00.000                             : en:Chapter 2 - 00 Hr 10 Min
00:15:00.000                             : en:Chapter 3 - 00 Hr 15 Min
00:20:00.000                             : en:Chapter 4 - 00 Hr 20 Min
00:25:00.000                             : en:Chapter 5 - 00 Hr 25 Min
00:30:00.000                             : en:Chapter 6 - 00 Hr 30 Min
00:35:00.000                             : en:Chapter 7 - 00 Hr 35 Min
00:40:00.000                             : en:Chapter 8 - 00 Hr 40 Min
00:45:00.000                             : en:Chapter 9 - 00 Hr 45 Min
00:50:00.000                             : en:Chapter 10 - 00 Hr 50 Min
00:55:00.000                             : en:Chapter 11 - 00 Hr 55 Min
01:00:00.000                             : en:Chapter 12 - 01 Hr 00 Min
01:05:00.000                             : en:Chapter 13 - 01 Hr 05 Min
01:10:00.000                             : en:Chapter 14 - 01 Hr 10 Min
01:15:00.000                             : en:Chapter 15 - 01 Hr 15 Min
01:20:00.000                             : en:Chapter 16 - 01 Hr 20 Min
01:25:00.000                             : en:Chapter 17 - 01 Hr 25 Min
01:30:00.000                             : en:Chapter 18 - 01 Hr 30 Min
01:35:00.000                             : en:Chapter 19 - 01 Hr 35 Min







Código:
www.club-hd.com[/CENTER]










Enlaces de Mega y Fireload solo disponibles para Miembros VIP

Compra tu Membresía VIP y apoya a Club-HD!

ATENCIÓN! Tenemos TODO el material de Club-HD disponible por Mega y Fireload, enlaces 100% activos y online hasta la fecha

Llévate tus cuentas Mega PRO II gratis con tu membresía VIP!
Todos los posts vivos con links de Mega y Fireload.
Todo el material de Club-HD desbloqueado y sin publicidad.

Click Aquí para más información.




Enlaces de Mega y Fireload solo disponibles para Miembros VIP

Compra tu Membresía VIP y apoya a Club-HD!

ATENCIÓN! Tenemos TODO el material de Club-HD disponible por Mega y Fireload, enlaces 100% activos y online hasta la fecha

Llévate tus cuentas Mega PRO II gratis con tu membresía VIP!
Todos los posts vivos con links de Mega y Fireload.
Todo el material de Club-HD desbloqueado y sin publicidad.

Click Aquí para más información.

Enlaces de Mega y Fireload solo disponibles para Miembros VIP

Compra tu Membresía VIP y apoya a Club-HD!

ATENCIÓN! Tenemos TODO el material de Club-HD disponible por Mega y Fireload, enlaces 100% activos y online hasta la fecha

Llévate tus cuentas Mega PRO II gratis con tu membresía VIP!
Todos los posts vivos con links de Mega y Fireload.
Todo el material de Club-HD desbloqueado y sin publicidad.

Click Aquí para más información.

Para ver este contenido oculto, debes dar click en una de las siguientes reacciones : Like Like, Love Love, Haha Haha, Wow Wow, Sad Sad, Angry Angry

Para ver este contenido oculto, debes dar click en una de las siguientes reacciones : Like Like, Love Love, Haha Haha, Wow Wow, Sad Sad, Angry Angry
 
Última edición:

VincentVega

New member
Registro
27 Ago 2012
Mensajes
404
Reacciones
162
Puntos
0
Edad
32
Ubicación
Valinor

Reputation:

diooosss! marcó mi infancia y todavía no vi la 3. gracias muchachos
 

sinpk2

New member
Registro
29 Ago 2012
Mensajes
360
Reacciones
17
Puntos
0

Reputation:

ufff y seguimos bajamdo :) graciassssssssssssssssssssssssssssss
 

Usuarios Que Están Viendo Este Tema (Total: 1, Miembros: 0, Invitados: 1)

Arriba