Training Day (2001) m-720p BDRip Dual Latino-Inglés [Subt. Esp] (Thriller. Acción)

Maestro Revolver

Well-known member
Miembro del Staff
Administrador
Registro
9 Ago 2012
Mensajes
3.567








TÍTULO ORIGINAL: Training Day
AÑO: 2001
DURACIÓN: 122 min.
PAÍS: USA
DIRECTOR: Antoine Fuqua
GUIÓN: David Ayer
REPARTO: Denzel Washington, Ethan Hawke, Scott Glenn, Tom Berenger, Harris Yulin, Raymond J. Barry, Cliff Curtis, Dr. Dre, Snoop Dogg, Macy Gray, Charlotte Ayanna, Eva Mendes, Nick Chinlund, Jaime Gomez, Raymond Cruz, Noel Gugliemi, Samantha Esteban
PRODUCTORA: Warner Bros. Pictures / Village Roadshow Pictures / NPV Entertainment
GÉNERO: Thriller. Acción | Crimen. Policíaco. Drogas
: http://www.imdb.com/title/tt0139654/

Premios: 2001: 1 Oscar: Mejor actor (Denzel Washington). 2 nominaciones: actor de reparto (Hawke)
2001: Nominación al Globo de Oro: Mejor actor dramático (Denzel Washington)
2001: Asociación de Críticos de Los Angeles: Mejor actor (Denzel Washington)
2001: Círculo de Críticos de Nueva York: Nominada a Mejor actor (Denzel Washington)






Todos los días, en las calles de las zonas urbanas deprimidas de los Estados Unidos se libra una guerra; una guerra entre residentes, traficantes de droga y los que han jurado proteger a unos de los otros. Esta guerra tiene sus víctimas y sus verdugos, y una de sus figuras más importantes es el sargento Alonzo Harris, un agente de narcóticos con 13 años de experiencia cuyos discutibles métodos hacen difusa la línea entre la legalidad y la corrupción. Jake Hoyt, un joven policía recién asignado a narcóticos, comienza sus rondas a las órdenes de Alonzo para aprender de él.
























La pelicula NO tiene ninguna marca... solo colocamos el nombre de esta web en las capturas






Código:
General
Format                                   : Matroska
Format version                           : Version 2
File size                                : 2.83 GiB
Duration                                 : 2h 2mn
Overall bit rate                         : 3 319 Kbps
Movie name                               : www.club-hd.com
Encoded date                             : UTC 2013-04-28 03:10:22
Writing application                      : mkvmerge v5.8.0 ('No Sleep / Pillow') built on Sep  2 2012 15:37:04
Writing library                          : libebml v1.2.3 + libmatroska v1.3.0

Video
ID                                       : 1
Format                                   : AVC
Format/Info                              : Advanced Video Codec
Format profile                           : High@L4.1
Format settings, CABAC                   : Yes
Format settings, ReFrames                : 5 frames
Codec ID                                 : V_MPEG4/ISO/AVC
Duration                                 : 2h 2mn
Bit rate                                 : 2 421 Kbps
Width                                    : 1 280 pixels
Height                                   : 544 pixels
Display aspect ratio                     : 2.35:1
Frame rate mode                          : Constant
Frame rate                               : 23.976 fps
Color space                              : YUV
Chroma subsampling                       : 4:2:0
Bit depth                                : 8 bits
Scan type                                : Progressive
Bits/(Pixel*Frame)                       : 0.145
Stream size                              : 2.06 GiB (73%)
Title                                    : www.club-hd.com
Writing library                          : x264 core 129 r2230 1cffe9f
Language                                 : English
Default                                  : Yes
Forced                                   : No

Audio #1
ID                                       : 2
Format                                   : AC-3
Format/Info                              : Audio Coding 3
Format profile                           : Dolby Digital
Mode extension                           : CM (complete main)
Format settings, Endianness              : Big
Codec ID                                 : A_AC3
Duration                                 : 2h 2mn
Bit rate mode                            : Constant
Bit rate                                 : 192 Kbps
Channel(s)                               : 2 channels
Channel positions                        : Front: L R
Sampling rate                            : 48.0 KHz
Bit depth                                : 16 bits
Compression mode                         : Lossy
Stream size                              : 168 MiB (6%)
Title                                    : Latino
Language                                 : Spanish
Default                                  : Yes
Forced                                   : No

Audio #2
ID                                       : 3
Format                                   : AC-3
Format/Info                              : Audio Coding 3
Mode extension                           : CM (complete main)
Format settings, Endianness              : Big
Codec ID                                 : A_AC3
Duration                                 : 2h 2mn
Bit rate mode                            : Constant
Bit rate                                 : 640 Kbps
Channel(s)                               : 6 channels
Channel positions                        : Front: L C R, Side: L R, LFE
Sampling rate                            : 48.0 KHz
Bit depth                                : 16 bits
Compression mode                         : Lossy
Stream size                              : 559 MiB (19%)
Title                                    : Inglés
Language                                 : English
Default                                  : No
Forced                                   : No

Text
ID                                       : 4
Format                                   : UTF-8
Codec ID                                 : S_TEXT/UTF8
Codec ID/Info                            : UTF-8 Plain Text
Language                                 : Spanish
Default                                  : No
Forced                                   : No








Enlaces de Mega y Google Drive solo disponibles para Miembros VIP

Compra tu Membresía VIP y apoya a Club-HD!

ATENCIÓN! Tenemos TODO el material de Club-HD disponible por Mega y Google Drive, enlaces 100% activos y online hasta la fecha

Llévate tus cuentas Mega PRO III gratis con tu membresía VIP!
Todos los posts vivos con links de Mega y Google Drive.
Todo el material de Club-HD desbloqueado y sin publicidad.

Click Aquí para más información.



Para ver este contenido oculto, debes dar click en una de las siguientes reacciones : Like Like, Love Love, Haha Haha, Wow Wow, Sad Sad, Angry Angry

 
Última edición por un moderador:

Usuarios Que Están Viendo Este Tema (Total: 1, Miembros: 0, Invitados: 1)

Quién Leyó Este Tema (Total Miembros: 2)

Arriba