Tropa De Elite (2007) 720p BDRip Dual Latino-Portugués [Subt. Esp-Ing] (Acción. Drama)

Max

Admin
Miembro del Staff
Administrador
Miembro VIP
Registro
8 Ago 2012
Mensajes
6.036
Ubicación
Disco C




Título original: Tropa de Elite
Título en Latino: Tropa de Elite
Título internacional: Elite Squad
Año: 2007
Duración: 114 min.
País: Brasil
Director: José Padilha
Guión: José Padilha, Bráulio Mantovani, Rodrigo Pimentel (Libro: André Batista)
Música: Pedro Bromfman
Fotografía: Lula Carvalho
Reparto: Wagner Moura, Caio Junqueira, André Ramiro, Fernanda Machado, Milhem Cortaz, Fernanda de Freitas, Thelmo Fernandes, Maria Ribeiro, Paulo Vilela, Marcelo Valle, Fábio Lago, Emerson Gomes
Productora: Coproducción Brasil-EEUU-Argentina-Países Bajos; Zazen Produções / Posto 9 / Feijão Filmes / The Weinstein Company / Estúdios Mega / Quanta Centro de Produções Cinematográficas / Universal Pictures do Brasil / Costa Films
Género: Acción. Drama

http://www.imdb.com/title/tt0861739/?ref_=fn_al_tt_1






Brasil, año 1997. El capitán Nascimento (Wagner Moura) está al mando de un escuadrón del Batallón de Operaciones Policiales Especiales (BOPE), un cuerpo de élite de la policía de Río de Janeiro. Su misión es actuar en las favelas, en las que la policía, por miedo o por corrupción, no interviene. Nascimento quiere dejar su puesto, ya que está a punto de ser padre, pero antes necesita encontrar un sustituto adecuado. Con ese fin comienza a instruir a dos policías honestos y amigos desde la infancia: Neto, que es un hombre de acción, y Matías, que estudia Derecho porque cree en la ley. Juntos entrarán en el BOPE y cumplirán sus misiones hasta las últimas consecuencias.



























Código:
General
Complete name                            : Tropa De Elite (2007) 720p BDRip Dual Latino-Portugués [Subt. Esp-Ing].mkv
Format                                   : Matroska
Format version                           : Version 2
File size                                : 2.96 GiB
Duration                                 : 1h 54mn
Overall bit rate                         : 3 693 Kbps
Movie name                               : www.club-hd.com --> Tropa De Elite (2007) 720p BDRip Dual Latino-Portugués [Subt. Esp-Ing]
Encoded date                             : UTC 2013-08-15 20:02:27
Writing application                      : mkvmerge v5.8.0 ('No Sleep / Pillow') built on Sep  2 2012 15:37:04
Writing library                          : libebml v1.2.3 + libmatroska v1.3.0

Video
ID                                       : 1
Format                                   : AVC
Format/Info                              : Advanced Video Codec
Format profile                           : High@L4.1
Format settings, CABAC                   : Yes
Format settings, ReFrames                : 5 frames
Muxing mode                              : Header stripping
Codec ID                                 : V_MPEG4/ISO/AVC
Duration                                 : 1h 54mn
Bit rate                                 : 2 801 Kbps
Width                                    : 1 280 pixels
Height                                   : 688 pixels
Display aspect ratio                     : 1.85:1
Frame rate mode                          : Constant
Frame rate                               : 23.976 fps
Color space                              : YUV
Chroma subsampling                       : 4:2:0
Bit depth                                : 8 bits
Scan type                                : Progressive
Bits/(Pixel*Frame)                       : 0.133
Stream size                              : 2.18 GiB (74%)
Title                                    : Tropa De Elite (2007) 720p BDRip Dual Latino-Portugués [Subt. Esp-Ing]
Writing library                          : x264 core 128 r2216 198a7ea
Encoding settings                        : cabac=1 / ref=5 / deblock=1:-2:-2 / analyse=0x3:0x113 / me=umh / subme=8 / psy=1 / psy_rd=1.00:0.00 / mixed_ref=1 / me_range=16 / chroma_me=1 / trellis=1 / 8x8dct=1 / cqm=0 / deadzone=21,11 / fast_pskip=1 / chroma_qp_offset=-2 / threads=4 / lookahead_threads=1 / sliced_threads=0 / nr=0 / decimate=1 / interlaced=0 / bluray_compat=0 / constrained_intra=0 / bframes=3 / b_pyramid=2 / b_adapt=1 / b_bias=0 / direct=1 / weightb=1 / open_gop=0 / weightp=2 / keyint=250 / keyint_min=23 / scenecut=40 / intra_refresh=0 / rc_lookahead=40 / rc=2pass / mbtree=1 / bitrate=2801 / ratetol=1.0 / qcomp=0.60 / qpmin=0 / qpmax=69 / qpstep=4 / cplxblur=20.0 / qblur=0.5 / ip_ratio=1.40 / aq=1:1.00
Language                                 : Portuguese
Default                                  : Yes
Forced                                   : No

Audio #1
ID                                       : 2
Format                                   : AC-3
Format/Info                              : Audio Coding 3
Mode extension                           : CM (complete main)
Format settings, Endianness              : Big
Muxing mode                              : Header stripping
Codec ID                                 : A_AC3
Duration                                 : 1h 54mn
Bit rate mode                            : Constant
Bit rate                                 : 448 Kbps
Channel(s)                               : 6 channels
Channel positions                        : Front: L C R, Side: L R, LFE
Sampling rate                            : 48.0 KHz
Bit depth                                : 16 bits
Compression mode                         : Lossy
Stream size                              : 368 MiB (12%)
Title                                    : Tropa De Elite (2007) - Español Latino AC3 5.1
Language                                 : Spanish
Default                                  : Yes
Forced                                   : No

Audio #2
ID                                       : 3
Format                                   : AC-3
Format/Info                              : Audio Coding 3
Mode extension                           : CM (complete main)
Format settings, Endianness              : Big
Muxing mode                              : Header stripping
Codec ID                                 : A_AC3
Duration                                 : 1h 54mn
Bit rate mode                            : Constant
Bit rate                                 : 448 Kbps
Channel(s)                               : 6 channels
Channel positions                        : Front: L C R, Side: L R, LFE
Sampling rate                            : 48.0 KHz
Bit depth                                : 16 bits
Compression mode                         : Lossy
Stream size                              : 368 MiB (12%)
Title                                    : Tropa De Elite (2007) - Portugués AC3 5.1
Language                                 : Portuguese
Default                                  : No
Forced                                   : No

Text #1
ID                                       : 4
Format                                   : UTF-8
Codec ID                                 : S_TEXT/UTF8
Codec ID/Info                            : UTF-8 Plain Text
Title                                    : Tropa De Elite (2007) - Subtítulos Español
Language                                 : Spanish
Default                                  : No
Forced                                   : No

Text #2
ID                                       : 5
Format                                   : UTF-8
Codec ID                                 : S_TEXT/UTF8
Codec ID/Info                            : UTF-8 Plain Text
Title                                    : Tropa De Elite (2007) - Subtítulos Inglés
Language                                 : English
Default                                  : No
Forced                                   : No








Enlaces de Mega y Google Drive solo disponibles para Miembros VIP

Compra tu Membresía VIP y apoya a Club-HD!

ATENCIÓN! Tenemos TODO el material de Club-HD disponible por Mega y Google Drive, enlaces 100% activos y online hasta la fecha

Llévate tus cuentas Mega PRO III gratis con tu membresía VIP!
Todos los posts vivos con links de Mega y Google Drive.
Todo el material de Club-HD desbloqueado y sin publicidad.

Click Aquí para más información.



Para ver este contenido oculto, debes dar click en una de las siguientes reacciones : Like Like, Love Love, Haha Haha, Wow Wow, Sad Sad, Angry Angry
 
Última edición:

Usuarios Que Están Viendo Este Tema (Total: 1, Miembros: 0, Invitados: 1)

Quién Leyó Este Tema (Total Miembros: 3)

Arriba