V/H/S (2012) m-720p Audio Inglés [Subt. Esp] (Terror)

Maestro Revolver

Well-known member
Miembro del Staff
Administrador
Registro
9 Ago 2012
Mensajes
3.569
Reacciones
59.471
Puntos
113

Reputation:









TÍTULO ORIGINAL: V/H/S (VHS)
AÑO: 2012
DURACIÓN: 116 min.
PAÍS: USA
DIRECTOR: Adam Wingard, Glenn McQuaid, Radio Silence, David Bruckner, Joe Swanberg, Ti West
GUIÓN: Simon Barrett, Glenn McQuaid, Matt Bettinelli-Olpin, Tyler Gillett, Justin Martinez, Chad Villella, David Bruckner, Nicholas Tecosky, Ti West
REPARTO: Joe Swanberg, Adam Wingard, Sophia Takal, Kate Lyn Sheil, Calvin Reeder, Lane Hughes
PRODUCTORA: Bloody Disgusting / The Collective
GÉNERO: Terror. Thriller | Metraje encontrado. Película de episodios. Cine independiente USA
http://www.imdb.com/title/tt2105044/

PREMIOS: 2012: Festival de Sitges: Sección oficial largometrajes a concurso






Película de episodios del tipo "found footage", desde la perspectiva de varios cineastas de género. Se trata de una antología de terror centrada en un grupo de matones degenerados que disfrutan violando mujeres y que son contratados por un misterioso sujeto para que vayan a una casa abandonada y encuentren allí una cinta con imágenes horribles. Las instrucciones decían que tal cinta debía ser de fácil reconocimiento, pero cuando llegan a la casa encuentran una enorme biblioteca de ellas. Su tarea será entonces descubrir cuál es la cinta maldita.
























La pelicula NO tiene ninguna marca... solo colocamos el nombre de esta web en las capturas






Código:
General
Format                           : Matroska
Format version                   : Version 2
File size                        : 2.72 GiB
Duration                         : 1h 56mn
Overall bit rate                 : 3 355 Kbps
Movie name                       : www.club-hd.com
Encoded date                     : UTC 2012-10-20 21:34:08
Writing application              : mkvmerge v5.7.0 ('The Whirlwind') built on Jul  8 2012 20:08:51
Writing library                  : libebml v1.2.3 + libmatroska v1.3.0

Video
ID                               : 1
Format                           : AVC
Format/Info                      : Advanced Video Codec
Format profile                   : High@L4.1
Format settings, CABAC           : Yes
Format settings, ReFrames        : 7 frames
Codec ID                         : V_MPEG4/ISO/AVC
Duration                         : 1h 56mn
Bit rate                         : 2 713 Kbps
Width                            : 1 280 pixels
Height                           : 720 pixels
Display aspect ratio             : 16:9
Frame rate                       : 23.976 fps
Color space                      : YUV
Chroma subsampling               : 4:2:0
Bit depth                        : 8 bits
Scan type                        : Progressive
Bits/(Pixel*Frame)               : 0.123
Stream size                      : 2.15 GiB (79%)
Title                            : www.club-hd.com
Writing library                  : x264 core 125 r2200 999b753
Language                         : English
Default                          : Yes
Forced                           : No

Audio
ID                               : 2
Format                           : AC-3
Format/Info                      : Audio Coding 3
Mode extension                   : CM (complete main)
Codec ID                         : A_AC3
Duration                         : 1h 56mn
Bit rate mode                    : Constant
Bit rate                         : 640 Kbps
Channel(s)                       : 6 channels
Channel positions                : Front: L C R, Side: L R, LFE
Sampling rate                    : 48.0 KHz
Bit depth                        : 16 bits
Compression mode                 : Lossy
Stream size                      : 532 MiB (19%)
Title                            : www.club-hd.com
Language                         : English
Default                          : Yes
Forced                           : No

Text
ID                               : 3
Format                           : UTF-8
Codec ID                         : S_TEXT/UTF8
Codec ID/Info                    : UTF-8 Plain Text
Language                         : Spanish
Default                          : Yes
Forced                           : No

Menu
00:00:00.000                     : en:(01)00:00:00:000
00:06:15.583                     : en:(02)00:06:15:583
00:18:04.833                     : en:(03)00:18:04:833
00:30:57.522                     : en:(04)00:30:57:522
00:38:23.467                     : en:(05)00:38:23:467
00:47:00.234                     : en:(06)00:47:00:234
00:57:57.807                     : en:(07)00:57:57:807
01:08:22.431                     : en:(08)01:08:22:431
01:19:50.619                     : en:(09)01:19:50:619
01:31:49.754                     : en:(10)01:31:49:754
01:41:23.827                     : en:(11)01:41:23:827
01:50:44.220                     : en:(12)01:50:44:220
01:56:07.919                     : en:(13)01:56:07:919










Enlaces de Mega y Fireload solo disponibles para Miembros VIP

Compra tu Membresía VIP y apoya a Club-HD!

ATENCIÓN! Tenemos TODO el material de Club-HD disponible por Mega y Fireload, enlaces 100% activos y online hasta la fecha

Llévate tus cuentas Mega PRO II gratis con tu membresía VIP!
Todos los posts vivos con links de Mega y Fireload.
Todo el material de Club-HD desbloqueado y sin publicidad.

Click Aquí para más información.



Enlaces de Mega y Fireload solo disponibles para Miembros VIP

Compra tu Membresía VIP y apoya a Club-HD!

ATENCIÓN! Tenemos TODO el material de Club-HD disponible por Mega y Fireload, enlaces 100% activos y online hasta la fecha

Llévate tus cuentas Mega PRO II gratis con tu membresía VIP!
Todos los posts vivos con links de Mega y Fireload.
Todo el material de Club-HD desbloqueado y sin publicidad.

Click Aquí para más información.


Para ver este contenido oculto, debes dar click en una de las siguientes reacciones : Like Like, Love Love, Haha Haha, Wow Wow, Sad Sad, Angry Angry

 
Última edición:

Omar Herrera

Well-known member
Miembro del Staff
Súper Moderador
Registro
27 Ago 2012
Mensajes
1.234
Reacciones
326
Puntos
83
Edad
32
Ubicación
Managua

Reputation:

Pnsand0 habra que probarla...
Desc_g_
Gracias Revolver Amigo!! :aplausos:
 

eljumachi

Well-known member
Miembro VIP
Registro
27 Ago 2012
Mensajes
2.178
Reacciones
340
Puntos
83

Reputation:

Otra de Terror suspenso de las que me gustan, Muy agradecido, R-21
 

Back_kisame

New member
Registro
27 Ago 2012
Mensajes
184
Reacciones
2
Puntos
0

Reputation:

gracias, me gustan este tipo de pelis si tienes mas las subes master!!!:rzr_:
 

Pedrum

The Buckminster
Registro
28 Ago 2012
Mensajes
1.092
Reacciones
1.546
Puntos
113
Ubicación
Bahia Blanca

Reputation:

Parece que va a ser buena... vamos a bajarla a ver que onda. Se agradece master! :dplgar:
Felicitaciones a todos por el chat, cada vez mas grosa esta pagina, después lo pruebo un rato.

Abrazo! victory
 

Nosferatu

Well-known member
Súper Moderador
Registro
31 Ago 2012
Mensajes
2.275
Reacciones
1.362
Puntos
113
Edad
44
Ubicación
Welcome to Hell!!

Reputation:

Veremos a ver que tal,:OHHH: no paran de sorprenderme,y ahora con todo y chat incluido,al rato lo pruebo, los foros con esa nueva imagen an quedado Excelentes.:aplausos::aplausos:

Nada mas me queda decirles 1000 GRACIAS MAESTROS!:LXR::LXR::aplausos:

PD: sigan a si rompiendo barreras,que pronto estarán en los "Guinnes Records" como la mejor web.:aplausos:

SALUDOS MIS HERMANOS!!!
 

Usuarios Que Están Viendo Este Tema (Total: 1, Miembros: 0, Invitados: 1)

Arriba