Venom: Let There Be Carnage (2021) 1080p AMZN WEB-DL Dual Latino-Inglés [Subt.Esp] (Fantástico. Acción. Comedia)

Flaco

Well-known member
Miembro del Staff
Moderador
Uploader
Registro
25 May 2015
Mensajes
648
Reacciones
4.585
Puntos
93
Ubicación
Gargantua

Reputation:









Eddie Brock (Tom Hardy) y su simbionte Venom todavía están intentando descubrir cómo vivir juntos cuando un preso que está en el corredor de la muerte (Woody Harrelson) se infecta con un simbionte propio.






Código:
General
Complete name                            : Venom Let There Be Carnage (2021) 1080p AMZN WEB-DL Dual Latino-Inglés [Subt.Esp].mkv
Format                                   : Matroska
Format version                           : Version 4
File size                                : 5.41 GiB
Duration                                 : 1 h 37 min
Overall bit rate                         : 7 936 kb/s
Encoded date                             : UTC 2021-11-23 06:28:53
Writing application                      : mkvmerge v61.0.0 ('So') 64-bit
Writing library                          : libebml v1.4.2 + libmatroska v1.6.4

Video
ID                                       : 1
Format                                   : AVC
Format/Info                              : Advanced Video Codec
Format profile                           : High@L4
Format settings                          : CABAC / 4 Ref Frames
Format settings, CABAC                   : Yes
Format settings, Reference frames        : 4 frames
Codec ID                                 : V_MPEG4/ISO/AVC
Duration                                 : 1 h 37 min
Bit rate mode                            : Constant
Bit rate                                 : 6 654 kb/s
Nominal bit rate                         : 10 000 kb/s
Width                                    : 1 920 pixels
Height                                   : 1 040 pixels
Display aspect ratio                     : 1.85:1
Frame rate mode                          : Constant
Frame rate                               : 23.976 (24000/1001) FPS
Color space                              : YUV
Chroma subsampling                       : 4:2:0
Bit depth                                : 8 bits
Scan type                                : Progressive
Bits/(Pixel*Frame)                       : 0.139
Stream size                              : 4.53 GiB (84%)
Title                                    :  / Venom Let There Be Carnage (2021) 1080p AMZN WEB-DL Dual Latino-Inglés [Subt.Esp]
Language                                 : English
Default                                  : Yes
Forced                                   : No
Color range                              : Limited
Color primaries                          : BT.709
Transfer characteristics                 : BT.709
Matrix coefficients                      : BT.709

Audio #1
ID                                       : 2
Format                                   : E-AC-3
Format/Info                              : Enhanced AC-3
Commercial name                          : Dolby Digital Plus
Codec ID                                 : A_EAC3
Duration                                 : 1 h 37 min
Bit rate mode                            : Constant
Bit rate                                 : 640 kb/s
Channel(s)                               : 6 channels
Channel layout                           : L R C LFE Ls Rs
Sampling rate                            : 48.0 kHz
Frame rate                               : 31.250 FPS (1536 SPF)
Compression mode                         : Lossy
Stream size                              : 447 MiB (8%)
Title                                    : Español Latino EAC3 5.1
Language                                 : Spanish
Service kind                             : Complete Main
Default                                  : Yes
Forced                                   : No

Audio #2
ID                                       : 3
Format                                   : E-AC-3
Format/Info                              : Enhanced AC-3
Commercial name                          : Dolby Digital Plus
Codec ID                                 : A_EAC3
Duration                                 : 1 h 37 min
Bit rate mode                            : Constant
Bit rate                                 : 640 kb/s
Channel(s)                               : 6 channels
Channel layout                           : L R C LFE Ls Rs
Sampling rate                            : 48.0 kHz
Frame rate                               : 31.250 FPS (1536 SPF)
Compression mode                         : Lossy
Stream size                              : 447 MiB (8%)
Title                                    : Inglés EAC3 5.1
Language                                 : English
Service kind                             : Complete Main
Default                                  : No
Forced                                   : No

Text
ID                                       : 4
Format                                   : UTF-8
Codec ID                                 : S_TEXT/UTF8
Codec ID/Info                            : UTF-8 Plain Text
Duration                                 : 1 h 36 min
Bit rate                                 : 48 b/s
Count of elements                        : 1099
Stream size                              : 34.0 KiB (0%)
Title                                    : Latino Completo
Language                                 : Spanish
Default                                  : No
Forced                                   : No





















Todos los links son Intercambiables!


Enlaces de Mega y Fireload solo disponibles para Miembros VIP

Compra tu Membresía VIP y apoya a Club-HD!

ATENCIÓN! Tenemos TODO el material de Club-HD disponible por Mega y Fireload, enlaces 100% activos y online hasta la fecha

Llévate tus cuentas Mega PRO II gratis con tu membresía VIP!
Todos los posts vivos con links de Mega y Fireload.
Todo el material de Club-HD desbloqueado y sin publicidad.

Click Aquí para más información.

Enlaces de Mega y Fireload solo disponibles para Miembros VIP

Compra tu Membresía VIP y apoya a Club-HD!

ATENCIÓN! Tenemos TODO el material de Club-HD disponible por Mega y Fireload, enlaces 100% activos y online hasta la fecha

Llévate tus cuentas Mega PRO II gratis con tu membresía VIP!
Todos los posts vivos con links de Mega y Fireload.
Todo el material de Club-HD desbloqueado y sin publicidad.

Click Aquí para más información.

Para ver este contenido oculto, debes dar click en una de las siguientes reacciones : Like Like, Love Love, Haha Haha, Wow Wow, Sad Sad, Angry Angry
 

madarts

Active member
Registro
12 Sep 2012
Mensajes
394
Reacciones
30
Puntos
28

Reputation:

Se armó el domingo jajaja
::dplagr::
 

phillip64

Active member
Registro
29 Ago 2012
Mensajes
847
Reacciones
213
Puntos
43

Reputation:

Orales amigos, gracias por traerla al club tan rapido... ;)
 

Usuarios Que Están Viendo Este Tema (Total: 1, Miembros: 0, Invitados: 1)

Quién Leyó Este Tema (Total Miembros: 237)

Arriba