Venom: Let There Be Carnage (2021) 4k HDR Ligero WebRip Dual Latino-Inglés [Subt.] (Ciencia ficción, Acción)

RUEDAS

Well-known member
Miembro del Staff
Súper Moderador
Uploader
Registro
1 Sep 2012
Mensajes
703
Reacciones
1.738
Puntos
93
Edad
41

Reputation:







Eddie Brock (Tom Hardy) y su simbionte Venom todavía están intentando descubrir cómo vivir juntos cuando un preso que está en el corredor de la muerte (Woody Harrelson) se infecta con un simbionte propio. (FILMAFFINITY)







Código:
Format                      : Matroska
Format version              : Version 4
File size                   : 3.39 GiB
Duration                    : 1 h 37 min
Overall bit rate            : 4 976 kb/s 

Video
ID                          : 1
Format                      : HEVC
Format/Info                 : High Efficiency Video Coding
Format profile              : Main 10@L5@Main
HDR format                  : SMPTE ST 2094 App 4, Version 1, HDR10+ Profile B compatible
Codec ID                    : V_MPEGH/ISO/HEVC
Duration                    : 1 h 37 min
Bit rate                    : 4 141 kb/s
Width                       : 3 840 pixels
Height                      : 2 080 pixels
Display aspect ratio        : 1.85:1
Frame rate mode             : Constant
Frame rate                  : 23.976 (24000/1001) FPS
Color space                 : YUV
Chroma subsampling          : 4:2:0
Bit depth                   : 10 bits 

Audio #1
ID                          : 2
Format                      : AAC LC SBR
Format/Info                 : Advanced Audio Codec Low Complexity with Spectral Band Replication
Commercial name             : HE-AAC
Format settings             : Explicit
Codec ID                    : A_AAC-2
Duration                    : 1 h 37 min
Bit rate                    : 206 kb/s
Channel(s)                  : 6 channels
Channel layout              : C L R Ls Rs LFE
Sampling rate               : 48.0 kHz
Frame rate                  : 23.438 FPS (2048 SPF)
Compression mode            : Lossy
Delay relative to video     : 23 ms
Stream size                 : 143 MiB (4%)
Language                    : English
Default                     : Yes
Forced                      : No

Audio #2
ID                          : 4
Format                      : E-AC-3
Format/Info                 : Enhanced AC-3
Commercial name             : Dolby Digital Plus
Codec ID                    : A_EAC3
Duration                    : 1 h 37 min
Bit rate mode               : Constant
Bit rate                    : 640 kb/s
Channel(s)                  : 6 channels
Channel layout              : L R C LFE Ls Rs
Sampling rate               : 48.0 kHz
Frame rate                  : 31.250 FPS (1536 SPF)
Compression mode            : Lossy
Stream size                 : 447 MiB (13%)
Language                    : Spanish
Service kind                : Complete Main
Default                     : No
Forced                      : No

Text
ID                          : 3
Format                      : UTF-8
Codec ID                    : S_TEXT/UTF8
Codec ID/Info               : UTF-8 Plain Text
Duration                    : 1 h 36 min
Bit rate                    : 43 b/s
Count of elements           : 1087
Stream size                 : 30.5 KiB (0%)
Language                    : Spanish
Default                     : No
Forced                      : No

Menu
00:00:00.000                : en:Chapter 1
00:05:25.949                : en:Chapter 2
00:11:33.485                : en:Chapter 3
00:18:22.434                : en:Chapter 4
00:23:00.630                : en:Chapter 5
00:30:27.160                : en:Chapter 6
00:35:03.769                : en:Chapter 7
00:43:09.130                : en:Chapter 8
00:47:27.347                : en:Chapter 9
00:54:53.418                : en:Chapter 10
01:01:32.817                : en:Chapter 11
01:06:19.478                : en:Chapter 12
01:11:49.184                : en:Chapter 13
01:18:03.725                : en:Chapter 14
01:21:52.494                : en:Chapter 15
01:26:41.326                : en:Chapter 16















CONTRASEÑA
www.club-hd.com








Todos los links son Intercambiables!







Enlaces de Mega y Fireload solo disponibles para Miembros VIP

Compra tu Membresía VIP y apoya a Club-HD!

ATENCIÓN! Tenemos TODO el material de Club-HD disponible por Mega y Fireload, enlaces 100% activos y online hasta la fecha

Llévate tus cuentas Mega PRO II gratis con tu membresía VIP!
Todos los posts vivos con links de Mega y Fireload.
Todo el material de Club-HD desbloqueado y sin publicidad.

Click Aquí para más información.




Enlaces de Mega y Fireload solo disponibles para Miembros VIP

Compra tu Membresía VIP y apoya a Club-HD!

ATENCIÓN! Tenemos TODO el material de Club-HD disponible por Mega y Fireload, enlaces 100% activos y online hasta la fecha

Llévate tus cuentas Mega PRO II gratis con tu membresía VIP!
Todos los posts vivos con links de Mega y Fireload.
Todo el material de Club-HD desbloqueado y sin publicidad.

Click Aquí para más información.




Para ver este contenido oculto, debes dar click en una de las siguientes reacciones : Like Like, Love Love, Haha Haha, Wow Wow, Sad Sad, Angry Angry


Para ver este contenido oculto, debes dar click en una de las siguientes reacciones : Like Like, Love Love, Haha Haha, Wow Wow, Sad Sad, Angry Angry
 

FUNKSW

Well-known member
Miembro VIP
Registro
12 Dic 2015
Mensajes
471
Reacciones
290
Puntos
63
Edad
44

Reputation:

Ay caramba. Creo que ésta va a ser una tendencia en internet: 4k HDR Ligero.

El 4k HDR Ligero. Sí que me encanta y se agradece mucho el esfuerzo por lo que me imagino que te debe tomar en tiempo dicho encodeo. Creo que lo que trato de decir es: Gracias por la subida.
 
Última edición:

tuto4

Active member
Registro
19 Sep 2012
Mensajes
566
Reacciones
29
Puntos
28

Reputation:

Estimados, me pueden indicar porque se está dejando de ocupar Uploaded?
 

Usuarios Que Están Viendo Este Tema (Total: 1, Miembros: 0, Invitados: 1)

Arriba