Volver (2006) 720p Audio Español (Drama. Comedia)

Maestro Revolver

Well-known member
Miembro del Staff
Administrador
Registro
9 Ago 2012
Mensajes
3.569
Reacciones
59.354
Puntos
113

Reputation:


Aporte Recuperado gracias a nuestro amigo rockhdzv







TÍTULO ORIGINAL: Volver
AÑO: 2006
DURACIÓN: 122 min.
PAÍS: España
DIRECTOR: Pedro Almodóvar
GUIÓN: Pedro Almodóvar
REPARTO: Penélope Cruz, Carmen Maura, Chus Lampreave, Lola Dueñas, Blanca Portillo, Yohana Cobo, Antonio de la Torre, María Isabel Díaz, Neus Sanz, Leandro Rivera, Carlos Blanco, Pepa Aniorte, Yolanda Ramos
PRODUCTORA: El Deseo S.A.
GÉNERO: Drama. Comedia | Melodrama. Familia
: http://www.imdb.com/title/tt0441909/

PREMIOS: 2006: Nominada al Oscar: Mejor actriz (Penélope Cruz)
2006: 2 nominaciones al Globo de Oro: Mejor actriz de drama, película de habla no inglesa
2006: 5 Premios Goya, incluyendo mejor película, director, actriz (Cruz). 14 nominaciones
2006: Festival de Cannes: Mejor guión, Mejor actriz (para su reparto femenino)
2006: Premios del Cine Europeo: Mejor director, mejor actriz (Cruz)
2006: 2 Nominaciones a los BAFTA: Mejor actriz (Cruz) y película de habla no inglesa
2006: Premios Cesar: Nominada a la mejor película extranjera
2006: Premios David de Donatello: Nominada a la mejor película europea
2006: National Board of Review (NBR): Mejor película de habla no inglesa
2006: Asociación de Críticos de Los Angeles: Finalista a mejor película extranjera y actriz






Nacida en un pueblo de La Mancha, Raimunda (Penélope Cruz) vive en Madrid, está casada con un obrero en paro (Antonio de la Torre) y tiene una hija adolescente (Yohana Cobo). Su hemana Sole (Lola Dueñas) se gana la vida como peluquera. Ambas echan de menos a su madre (Carmen Maura), que murió en un incendio en el pueblo. Pero, inesperadamente, la madre se presenta primero en casa de su hermana (Chus Lampreave) y después va a ver a Sole, aunque con quien dejó importantes asuntos pendientes fue con Raimunda y con Agustina, una vecina del pueblo (Blanca Portillo).
























La pelicula NO tiene ninguna marca... solo colocamos el nombre de esta web en las capturas






Código:
General
Format                                   : Matroska
Format version                           : Version 2
File size                                : 3.34 GiB
Duration                                 : 2h 1mn
Overall bit rate                         : 3 948 Kbps
Movie name                               : www.club-hd.com
Encoded date                             : UTC 2013-01-16 23:20:58
Writing application                      : mkvmerge v5.7.0 ('The Whirlwind') built on Jul  8 2012 20:08:51
Writing library                          : libebml v1.2.3 + libmatroska v1.3.0

Video
ID                                       : 1
Format                                   : AVC
Format/Info                              : Advanced Video Codec
Format profile                           : High@L4.0
Format settings, CABAC                   : Yes
Format settings, ReFrames                : 7 frames
Codec ID                                 : V_MPEG4/ISO/AVC
Duration                                 : 2h 1mn
Bit rate                                 : 3 500 Kbps
Width                                    : 1 280 pixels
Height                                   : 544 pixels
Display aspect ratio                     : 2.35:1
Frame rate mode                          : Constant
Frame rate                               : 23.976 fps
Color space                              : YUV
Chroma subsampling                       : 4:2:0
Bit depth                                : 8 bits
Scan type                                : Progressive
Bits/(Pixel*Frame)                       : 0.210
Stream size                              : 2.89 GiB (87%)
Title                                    : www.club-hd.com
Writing library                          : x264 core 120
Language                                 : Spanish
Default                                  : Yes
Forced                                   : No
Color primaries                          : BT.709
Transfer characteristics                 : BT.709
Matrix coefficients                      : BT.709

Audio
ID                                       : 2
Format                                   : AC-3
Format/Info                              : Audio Coding 3
Mode extension                           : CM (complete main)
Format settings, Endianness              : Big
Codec ID                                 : A_AC3
Duration                                 : 2h 1mn
Bit rate mode                            : Constant
Bit rate                                 : 448 Kbps
Channel(s)                               : 6 channels
Channel positions                        : Front: L C R, Side: L R, LFE
Sampling rate                            : 48.0 KHz
Bit depth                                : 16 bits
Compression mode                         : Lossy
Stream size                              : 388 MiB (11%)
Title                                    : www.club-hd.com
Language                                 : Spanish
Default                                  : Yes
Forced                                   : No







Código:
www.club-hd.com[/CENTER]







Todos los links son Intercambiables!





Enlaces de Mega y Fireload solo disponibles para Miembros VIP

Compra tu Membresía VIP y apoya a Club-HD!

ATENCIÓN! Tenemos TODO el material de Club-HD disponible por Mega y Fireload, enlaces 100% activos y online hasta la fecha

Llévate tus cuentas Mega PRO II gratis con tu membresía VIP!
Todos los posts vivos con links de Mega y Fireload.
Todo el material de Club-HD desbloqueado y sin publicidad.

Click Aquí para más información.




Enlaces de Mega y Fireload solo disponibles para Miembros VIP

Compra tu Membresía VIP y apoya a Club-HD!

ATENCIÓN! Tenemos TODO el material de Club-HD disponible por Mega y Fireload, enlaces 100% activos y online hasta la fecha

Llévate tus cuentas Mega PRO II gratis con tu membresía VIP!
Todos los posts vivos con links de Mega y Fireload.
Todo el material de Club-HD desbloqueado y sin publicidad.

Click Aquí para más información.



Enlaces de Mega y Fireload solo disponibles para Miembros VIP

Compra tu Membresía VIP y apoya a Club-HD!

ATENCIÓN! Tenemos TODO el material de Club-HD disponible por Mega y Fireload, enlaces 100% activos y online hasta la fecha

Llévate tus cuentas Mega PRO II gratis con tu membresía VIP!
Todos los posts vivos con links de Mega y Fireload.
Todo el material de Club-HD desbloqueado y sin publicidad.

Click Aquí para más información.



Para ver este contenido oculto, debes dar click en una de las siguientes reacciones : Like Like, Love Love, Haha Haha, Wow Wow, Sad Sad, Angry Angry



Para ver este contenido oculto, debes dar click en una de las siguientes reacciones : Like Like, Love Love, Haha Haha, Wow Wow, Sad Sad, Angry Angry
 
Última edición:

eljumachi

Well-known member
Miembro VIP
Registro
27 Ago 2012
Mensajes
2.174
Reacciones
339
Puntos
83

Reputation:

Veamos dijo el ciego, A ver sin ver. y este dijo... muchas gracias R 21
 

yorsh73

New member
Registro
27 Ago 2012
Mensajes
33
Reacciones
1
Puntos
0
Ubicación
México

Reputation:

Excelente amigo Revolver!! Otro peliculon mas de Almodovar!!! MUCHAS GRACIAS!!!
 

Usuarios Que Están Viendo Este Tema (Total: 1, Miembros: 0, Invitados: 1)

Arriba