Warm Bodies (2013) m-720p Dual Latino-Inglés [Subt. Esp] (Romance. Comedia)

Maestro Revolver

Well-known member
Miembro del Staff
Administrador
Registro
9 Ago 2012
Mensajes
3.567








TÍTULO ORIGINAL: Warm Bodies
AÑO: 2013
DURACIÓN: 97 min.
PAÍS: USA
DIRECTOR: Jonathan Levine
GUIÓN: Jonathan Levine (Novela: Isaac Marion)
REPARTO: Nicholas Hoult, Teresa Palmer, John Malkovich, Rob Corddry, Analeigh Tipton, Dave Franco, Cory Hardrict, Daniel Rindress-Kay, Vincent Leclerc, Alec Bourgeois, Zavier Vaillancourt, Clifford LeDuc-Vaillancourt, Adam Driscoll, Billie Calmeau
PRODUCTORA: Make Movies / Mandeville Films / Summit Entertainment
GÉNERO: Romance. Comedia. Fantástico | Comedia de terror. Zombis. Adolescencia. Parodia
: http://www.imdb.com/title/tt1588173/






R, un zombi con problemas existenciales, entabla una extraña amistad con la novia de una de sus víctimas. Esta insólita relación provoca una reacción en cadena que cambia su vida, la de otros zombis y probablemente la de todo el planeta.
























La pelicula NO tiene ninguna marca... solo colocamos el nombre de esta web en las capturas






Código:
General
Format                                   : Matroska
Format version                           : Version 2
File size                                : 2.59 GiB
Duration                                 : 1h 37mn
Overall bit rate                         : 3 792 Kbps
Movie name                               : www.club-hd.com
Encoded date                             : UTC 2013-05-25 17:29:32
Writing application                      : mkvmerge v5.7.0 ('The Whirlwind') built on Jul  8 2012 20:08:51
Writing library                          : libebml v1.2.3 + libmatroska v1.3.0

Video
ID                                       : 1
Format                                   : AVC
Format/Info                              : Advanced Video Codec
Format profile                           : High@L4.1
Format settings, CABAC                   : Yes
Format settings, ReFrames                : 9 frames
Codec ID                                 : V_MPEG4/ISO/AVC
Duration                                 : 1h 37mn
Bit rate                                 : 2 705 Kbps
Width                                    : 1 280 pixels
Height                                   : 534 pixels
Display aspect ratio                     : 2.40:1
Frame rate mode                          : Constant
Frame rate                               : 23.976 fps
Color space                              : YUV
Chroma subsampling                       : 4:2:0
Bit depth                                : 8 bits
Scan type                                : Progressive
Bits/(Pixel*Frame)                       : 0.165
Stream size                              : 1.79 GiB (69%)
Title                                    : www.club-hd.com
Writing library                          : x264 core 130 r2273 b3065e6
Language                                 : English
Default                                  : Yes
Forced                                   : No

Audio #1
ID                                       : 2
Format                                   : AC-3
Format/Info                              : Audio Coding 3
Mode extension                           : CM (complete main)
Format settings, Endianness              : Big
Codec ID                                 : A_AC3
Duration                                 : 1h 37mn
Bit rate mode                            : Constant
Bit rate                                 : 640 Kbps
Channel(s)                               : 6 channels
Channel positions                        : Front: L C R, Side: L R, LFE
Sampling rate                            : 44.1 KHz
Bit depth                                : 16 bits
Compression mode                         : Lossy
Delay relative to video                  : 218ms
Stream size                              : 448 MiB (17%)
Title                                    : Latino
Language                                 : Spanish
Default                                  : Yes
Forced                                   : No

Audio #2
ID                                       : 3
Format                                   : AC-3
Format/Info                              : Audio Coding 3
Mode extension                           : CM (complete main)
Format settings, Endianness              : Big
Codec ID                                 : A_AC3
Duration                                 : 1h 37mn
Bit rate mode                            : Constant
Bit rate                                 : 448 Kbps
Channel(s)                               : 6 channels
Channel positions                        : Front: L C R, Side: L R, LFE
Sampling rate                            : 48.0 KHz
Bit depth                                : 16 bits
Compression mode                         : Lossy
Stream size                              : 313 MiB (12%)
Language                                 : English
Default                                  : No
Forced                                   : No

Text
ID                                       : 4
Format                                   : UTF-8
Codec ID                                 : S_TEXT/UTF8
Codec ID/Info                            : UTF-8 Plain Text
Language                                 : Spanish
Default                                  : No
Forced                                   : No

Menu
00:00:00.000                             : en:Chapter 1
00:06:39.858                             : en:Chapter 2
00:12:24.202                             : en:Chapter 3
00:19:24.580                             : en:Chapter 4
00:24:22.920                             : en:Chapter 5
00:31:17.626                             : en:Chapter 6
00:40:52.408                             : en:Chapter 7
00:45:32.563                             : en:Chapter 8
00:49:56.285                             : en:Chapter 9
00:55:44.091                             : en:Chapter 10
01:02:25.492                             : en:Chapter 11
01:08:49.876                             : en:Chapter 12
01:14:08.861                             : en:Chapter 13
01:17:27.393                             : en:Chapter 14
01:24:00.702                             : en:Chapter 15
01:30:30.759                             : en:Chapter 16








Enlaces de Mega y Google Drive solo disponibles para Miembros VIP

Compra tu Membresía VIP y apoya a Club-HD!

ATENCIÓN! Tenemos TODO el material de Club-HD disponible por Mega y Google Drive, enlaces 100% activos y online hasta la fecha

Llévate tus cuentas Mega PRO III gratis con tu membresía VIP!
Todos los posts vivos con links de Mega y Google Drive.
Todo el material de Club-HD desbloqueado y sin publicidad.

Click Aquí para más información.


Para ver este contenido oculto, debes dar click en una de las siguientes reacciones : Like Like, Love Love, Haha Haha, Wow Wow, Sad Sad, Angry Angry



 
Última edición por un moderador:

Usuarios Que Están Viendo Este Tema (Total: 1, Miembros: 0, Invitados: 1)

Quién Leyó Este Tema (Total Miembros: 2)

Arriba