Watchmen (2009) Theatrical Cut m-720p Dual Latino-Inglés [Subt. Esp-Ing] (Fantástico. Acción)

Maestro Revolver

Well-known member
Miembro del Staff
Administrador
Registro
9 Ago 2012
Mensajes
3.569
Reacciones
59.366
Puntos
113

Reputation:









TÍTULO ORIGINAL: Watchmen
AÑO: 2009
PAÍS: USA
DIRECTOR: Zack Snyder
GUIÓN: Alex Tse, David Hayter (Novela gráfica: Alan Moore, Dave Gibbons)
REPARTO: Jackie Earle Haley, Malin Akerman, Billy Crudup, Matthew Goode, Jeffrey Dean Morgan, Patrick Wilson, Carla Gugino, Matt Frewer, Stephen McHattie, Laura Mennell, Rob LaBelle, Gary Houston, James M. Connor, Mary Ann Burger, John Shaw, Robert Wisden, Jerry Wasserman, Don Thompson, Frank Novak, Ron Fassler, Stephanie Belding, Nhi Do, Walter Addison, Eli Snyder
PRODUCTORA: Coproducción EEUU-Reino Unido-Canadá; Warner Bros. Pictures / Paramount Pictures / Legendary Pictures / DC Comics / Lawrence Gordon Productions
GÉNERO: Fantástico. Acción. Ciencia ficción. Thriller. Drama | Superhéroes. Cómic. DC Comics. Crimen. Años 80
: http://www.imdb.com/title/tt0409459/

PREMIOS: 2009: Saturn Awards: Mejor Película Fantástica, Mejor Vestuario. 8 nominaciones.
2009: Asociación de Críticos Online: Nominado Mejor Actor de Reparto (Earle Haley)
2009: Asociación de Editores de Sonido: Nominada a Mejor Edición de Sonido
2009: SFX Awards: Nominada a Mejor Película y Mejor Director






Estados Unidos, años 80. La Guerra Fría está en su apogeo, y los superhéroes, que antes habían sido admirados, ahora son perseguidos por la ley. Un día aparece muerto uno de ellos, "El Comediante", que trabajaba para la CIA. Su amigo Rorschach, el único héroe enmascarado en activo, emprenderá la investigación de su muerte, tras la que se oculta algo muy importante. Esperadísima adaptación del cómic de Alan Moore y Dave Gibbons (1986).
























La pelicula NO tiene ninguna marca... solo colocamos el nombre de esta web en las capturas






Código:
General
Format                                   : Matroska
Format version                           : Version 2
File size                                : 4.36 GiB
Duration                                 : 2h 42mn
Overall bit rate                         : 3 846 Kbps
Movie name                               : www.club-hd.com
Encoded date                             : UTC 2013-01-02 23:36:57
Writing application                      : mkvmerge v5.7.0 ('The Whirlwind') built on Jul  8 2012 20:08:51
Writing library                          : libebml v1.2.3 + libmatroska v1.3.0

Video
ID                                       : 1
Format                                   : AVC
Format/Info                              : Advanced Video Codec
Format profile                           : High@L3.1
Format settings, CABAC                   : Yes
Format settings, ReFrames                : 6 frames
Codec ID                                 : V_MPEG4/ISO/AVC
Duration                                 : 2h 42mn
Bit rate                                 : 3 000 Kbps
Width                                    : 1 280 pixels
Height                                   : 528 pixels
Display aspect ratio                     : 2.40:1
Frame rate mode                          : Constant
Frame rate                               : 23.976 fps
Color space                              : YUV
Chroma subsampling                       : 4:2:0
Bit depth                                : 8 bits
Scan type                                : Progressive
Bits/(Pixel*Frame)                       : 0.185
Stream size                              : 3.25 GiB (75%)
Title                                    : www.club-hd.com
Writing library                          : x264 core 120
Language                                 : English
Default                                  : Yes
Forced                                   : No
Color primaries                          : BT.709
Transfer characteristics                 : BT.709
Matrix coefficients                      : BT.709

Audio #1
ID                                       : 2
Format                                   : AC-3
Format/Info                              : Audio Coding 3
Mode extension                           : CM (complete main)
Format settings, Endianness              : Big
Codec ID                                 : A_AC3
Duration                                 : 2h 42mn
Bit rate mode                            : Constant
Bit rate                                 : 448 Kbps
Channel(s)                               : 6 channels
Channel positions                        : Front: L C R, Side: L R, LFE
Sampling rate                            : 48.0 KHz
Bit depth                                : 16 bits
Compression mode                         : Lossy
Delay relative to video                  : 2s 0ms
Stream size                              : 519 MiB (12%)
Title                                    : www.club-hd.com  >>  Latino
Language                                 : Spanish
Default                                  : Yes
Forced                                   : No

Audio #2
ID                                       : 3
Format                                   : AC-3
Format/Info                              : Audio Coding 3
Mode extension                           : CM (complete main)
Format settings, Endianness              : Big
Codec ID                                 : A_AC3
Duration                                 : 2h 42mn
Bit rate mode                            : Constant
Bit rate                                 : 448 Kbps
Channel(s)                               : 6 channels
Channel positions                        : Front: L C R, Side: L R, LFE
Sampling rate                            : 48.0 KHz
Bit depth                                : 16 bits
Compression mode                         : Lossy
Stream size                              : 519 MiB (12%)
Title                                    : www.club-hd.com  >>  Inglés
Language                                 : English
Default                                  : No
Forced                                   : No

Text #1
ID                                       : 4
Format                                   : UTF-8
Codec ID                                 : S_TEXT/UTF8
Codec ID/Info                            : UTF-8 Plain Text
Language                                 : Spanish
Default                                  : No
Forced                                   : No

Text #2
ID                                       : 5
Format                                   : UTF-8
Codec ID                                 : S_TEXT/UTF8
Codec ID/Info                            : UTF-8 Plain Text
Language                                 : English
Default                                  : No
Forced                                   : No










Enlaces de Mega y Fireload solo disponibles para Miembros VIP

Compra tu Membresía VIP y apoya a Club-HD!

ATENCIÓN! Tenemos TODO el material de Club-HD disponible por Mega y Fireload, enlaces 100% activos y online hasta la fecha

Llévate tus cuentas Mega PRO II gratis con tu membresía VIP!
Todos los posts vivos con links de Mega y Fireload.
Todo el material de Club-HD desbloqueado y sin publicidad.

Click Aquí para más información.




Enlaces de Mega y Fireload solo disponibles para Miembros VIP

Compra tu Membresía VIP y apoya a Club-HD!

ATENCIÓN! Tenemos TODO el material de Club-HD disponible por Mega y Fireload, enlaces 100% activos y online hasta la fecha

Llévate tus cuentas Mega PRO II gratis con tu membresía VIP!
Todos los posts vivos con links de Mega y Fireload.
Todo el material de Club-HD desbloqueado y sin publicidad.

Click Aquí para más información.



Para ver este contenido oculto, debes dar click en una de las siguientes reacciones : Like Like, Love Love, Haha Haha, Wow Wow, Sad Sad, Angry Angry
 
Última edición:

deividmetal

Active member
Registro
28 Ago 2012
Mensajes
530
Reacciones
175
Puntos
43
Ubicación
españa

Reputation:

que diferencia hay con esta thetrical cut y la de ultimate cut que no tiene audio español? :/
 

Joker

Well-known member
Miembro del Staff
Súper Moderador
Registro
27 Ago 2012
Mensajes
1.349
Reacciones
3.765
Puntos
113
Ubicación
Arkham Asylum

Reputation:

que diferencia hay con esta thetrical cut y la de ultimate cut que no tiene audio español? :/

Aun no las descargo y ni las he visto pero según la info "Ultimate Cut" tiene una duración de 3 horas 35 minutos y "The​​​atrical Cut" 2 horas 42 minutos así que supongo la primera tiene varias escenas adicionales que no encontraras en la otra...


Saludos :D
 

Usuarios Que Están Viendo Este Tema (Total: 1, Miembros: 0, Invitados: 1)

Arriba