Descarga películas y Series gratis en Latino

Ultimos Estrenos Blu-ray

Night Swim (2024) The Color Purple Wish Aquaman and The Lost Kingdom Anyone But You Poor Things Migration (2023) It Lives Inside The Holdovers Killers of the Flower Moon Justice League: Crisis on Infinite Earths - Part One Pet Sematary: Bloodlines PAW Patrol: The Mighty Movie The Exorcist: Believer (2023) The Creator The kill Room The Dive A Haunting in Venice Oppenheimer

Ultimos Estrenos Streaming

The Greatest Hits Woody Woodpecker Goes to Camp Kung Fu Panda 4 Anatomy of a Fall How to Date Billy Walsh The Boys in the Boat The Zone of Interest How to Date Billy Walsh Girls State Scoop Fabbricante di lacrime (The Tearsmith) The Antisocial Network: Memes to Mayhem Bray Wyatt: Becoming Immortal Imaginary Robot Dreams Lisa Frankenstein (2024) Road House Bob Marley: One Love Dream Scenario Madame Web Damsel (2024) Argylle BlackBerry Megamind vs. the Doom Syndicate Spaceman (2024) The Beekeeper Code 8: Part II Mean Girls Poor Things Mea Culpa (2024)

Series en Emision

Últimas publicaciones (Click para ver más)

Ficha Tecnica Título Original: The Calling (Serie de TV) Año: 2022 Duración: 45 min. País: Estados Unidos Director: David E. Kelley, Barry Levinson, Alonso Álvarez, Erin Feeley, Martha Mitchell, Lisa Robinson, Ali Selim, Michael Slovis Guion: David E. Kelley, Jonathan Shapiro, Jason Horwitch. Libro: Dror Mishani Reparto: Jeff Wilbusch, Juliana Canfield, Karen Robinson, Michael Mosley, Noel Fisher, Stephanie Szostak, Tony Curran, Steven Pasquale, Annabelle Dexter-Jones, Christopher Mann, Constance Zimmer, Chris Sullivan, Matthew Del Negro Género: Serie de TV, Drama El post se irá actualizando a como vayan saliendo los episodios semanales. Sinopsis Guiado por un profundo sentido de espiritualidad y sus principios religiosos, el detective de la policía de Nueva York Avraham Avraham se cuestiona su propia humanidad cuando una investigación rutinaria se complica. MEDIAINFO Formato : Matroska Formato de la versión : Version 4 Tamaño de archivo : 3,03 GiB Duración : 46 min 23 s Tasa de bits general : 9 347 kb/s Velocidad de fotogramas : 29,970 FPS Película : [Club-HD] The Calling S01 [1080p] Fecha de codificación : 2024-04-12 22:06:44 UTC Aplicación de codifición : mkvmerge v82.0 ('I'm The President') 64-bit Librería de codificación : libebml v1.4.5 + libmatroska v1.7.1 Pagina Web : www.club-hd.com Uploader : Sider Vídeo ID : 1 Formato : AVC Formato/Info : Advanced Video Codec Formato del perfil : High@L4 Ajustes del formato : CABAC / 4 Ref Frames Ajustes del formato, CABAC : Sí Ajustes del formato, RefFrames : 4 fotogramas ID códec : V_MPEG4/ISO/AVC Duración : 46 min 23 s Tipo de tasa de bits : Constante Tasa de bits : 8 713 kb/s Tasa de bits nominal : 10 000 kb/s Ancho : 1 920 píxeles Alto : 1 080 píxeles Relación de aspecto : 16:9 Modo velocidad fotogramas : Constante Velocidad de fotogramas : 29,970 (30000/1001) FPS Espacio de color : YUV Submuestreo croma : 4:2:0 Profundidad bits : 8 bits Tipo barrido : Progresivo Bits/(píxel*fotograma) : 0.140 Tamaño de pista : 2,82 GiB (93%) Título : [Club-HD] The Calling S01 [1080p] Idioma : Inglés Default : Sí Forced : No Rango de color : Limited Colores primarios : BT.709 Características transferencia : BT.709 Coeficientes matriz : BT.709 Audio #1 ID : 2 Formato : E-AC-3 Formato/Info : Enhanced AC-3 Nombre comercial : Dolby Digital Plus ID códec : A_EAC3 Duración : 46 min 23 s Tipo de tasa de bits : Constante Tasa de bits : 224 kb/s Canal(es) : 2 canales Channel layout : L R Velocidad de muestreo : 48,0 kHz Velocidad de fotogramas : 31,250 FPS (1536 SPF) Modo de compresión : Con pérdida Tamaño de pista : 74,3 MiB (2%) Título : Español latino [Sider] Idioma : Español Service kind : Complete Main Default : No Forced : No Audio #2 ID : 3 Formato : E-AC-3 Formato/Info : Enhanced AC-3 Nombre comercial : Dolby Digital Plus ID códec : A_EAC3 Duración : 46 min 23 s Tipo de tasa de bits : Constante Tasa de bits : 224 kb/s Canal(es) : 2 canales Channel layout : L R Velocidad de muestreo : 48,0 kHz Velocidad de fotogramas : 31,250 FPS (1536 SPF) Modo de compresión : Con pérdida Tamaño de pista : 74,3 MiB (2%) Título : Inglés [Sider] Idioma : Inglés Service kind : Complete Main Default : No Forced : No Texto ID : 4 Formato : UTF-8 ID códec : S_TEXT/UTF8 ID códec/Info : UTF-8 Plain Text Título : Español latino [C] [Sider] Idioma : Español Default : No Forced : No CAPTURAS ENLACES VIP 1 LINK VIP Hidden content ENLACES FREE Click aquí para descargar desde Fireload Click aquí para descargar desde 1Cloudfile Click aquí para descargar desde Qiwi CONTRASEÑA www.club-hd.com
Sinopsis Una historia de amor centrada en la conexión entre la música y la memoria y cómo nos transportan, a veces literalmente. MEDIAINFO General Unique ID : 333181867881492086784617542639090657088 (0xFAA87E5E674E8FC000920AF024A7E740) Format : Matroska Format version : Version 4 File size : 4.18 GiB Duration : 1 h 34 min Overall bit rate mode : Variable Overall bit rate : 6 330 kb/s Frame rate : 24.000 FPS Encoded date : 2024-04-12 14:08:07 UTC Writing application : mkvmerge v49.0.0 ('Sick Of Losing Soulmates') 64-bit Writing library : libebml v1.4.0 + libmatroska v1.6.1 Uploader : Brady Web : www.club-hd.com Video ID : 1 Format : AVC Format/Info : Advanced Video Codec Format profile : High@L4 Format settings : CABAC / 4 Ref Frames Format settings, CABAC : Yes Format settings, Reference frames : 4 frames Codec ID : V_MPEG4/ISO/AVC Duration : 1 h 34 min Bit rate mode : Variable Bit rate : 5 560 kb/s Maximum bit rate : 12.7 Mb/s Width : 1 920 pixels Height : 1 080 pixels Display aspect ratio : 16:9 Frame rate mode : Constant Frame rate : 24.000 FPS Color space : YUV Chroma subsampling : 4:2:0 Bit depth : 8 bits Scan type : Progressive Bits/(Pixel*Frame) : 0.112 Time code of first frame : 00:00:00;00 Stream size : 3.67 GiB (88%) Language : English Default : Yes Forced : No Color range : Limited Color primaries : BT.709 Transfer characteristics : BT.709 Matrix coefficients : BT.709 Audio ID : 2 Format : E-AC-3 JOC Format/Info : Enhanced AC-3 with Joint Object Coding Commercial name : Dolby Digital Plus with Dolby Atmos Codec ID : A_EAC3 Duration : 1 h 34 min Bit rate mode : Constant Bit rate : 768 kb/s Channel(s) : 6 channels Channel layout : L R C LFE Ls Rs Sampling rate : 48.0 kHz Frame rate : 31.250 FPS (1536 SPF) Compression mode : Lossy Stream size : 519 MiB (12%) Title : Ingles Language : English Service kind : Complete Main Default : Yes Forced : No Complexity index : 16 Number of dynamic objects : 15 Bed channel count : 1 channel Bed channel configuration : LFE Text #1 ID : 3 Format : UTF-8 Codec ID : S_TEXT/UTF8 Codec ID/Info : UTF-8 Plain Text Duration : 1 h 34 min Bit rate : 38 b/s Frame rate : 0.154 FPS Count of elements : 869 Stream size : 26.4 KiB (0%) Title : Latino Language : Spanish Default : Yes Forced : No Text #2 ID : 4 Format : UTF-8 Codec ID : S_TEXT/UTF8 Codec ID/Info : UTF-8 Plain Text Duration : 1 h 26 min Bit rate : 54 b/s Frame rate : 0.196 FPS Count of elements : 1018 Stream size : 34.9 KiB (0%) Title : Ingles Language : English Default : No Forced : No CAPTURAS DESCARGA Todos los links son Intercambiables! Hidden content Click aquí para descargar desde 1Cloudfile CONTRASEÑA www.club-hd.com
Sinopsis Tras su expulsión del bosque, Woody cree haber encontrado un nuevo hogar en el Campamento Woo Hoo, hasta que un inspector amenaza con cerrarlo. MEDIAINFO General Unique ID : 254071906759695470801923906531511516239 (0xBF247825B910A1DF8747AFDE510C3C4F) Format : Matroska Format version : Version 4 File size : 4.28 GiB Duration : 1 h 40 min Overall bit rate mode : Variable Overall bit rate : 6 107 kb/s Frame rate : 24.000 FPS Encoded date : 2024-04-12 14:07:22 UTC Writing application : mkvmerge v49.0.0 ('Sick Of Losing Soulmates') 64-bit Writing library : libebml v1.4.0 + libmatroska v1.6.1 Uploader : Brady Web : www.club-hd.com Video ID : 1 Format : AVC Format/Info : Advanced Video Codec Format profile : Main@L4 Format settings : CABAC / 3 Ref Frames Format settings, CABAC : Yes Format settings, Reference frames : 3 frames Codec ID : V_MPEG4/ISO/AVC Duration : 1 h 40 min Bit rate mode : Variable Bit rate : 4 697 kb/s Nominal bit rate : 5 000 kb/s Maximum bit rate : 7 500 kb/s Width : 1 920 pixels Height : 1 080 pixels Display aspect ratio : 16:9 Frame rate mode : Constant Frame rate : 24.000 FPS Color space : YUV Chroma subsampling : 4:2:0 Bit depth : 8 bits Scan type : Progressive Bits/(Pixel*Frame) : 0.094 Stream size : 3.29 GiB (77%) Writing library : x264 core 148 r2727 7d026e8 Encoding settings : cabac=1 / ref=3 / deblock=1:0:0 / analyse=0x1:0x111 / me=umh / subme=10 / psy=1 / psy_rd=1.00:0.00 / mixed_ref=1 / me_range=24 / chroma_me=1 / trellis=2 / 8x8dct=0 / cqm=0 / deadzone=21,11 / fast_pskip=1 / chroma_qp_offset=-2 / threads=6 / lookahead_threads=1 / sliced_threads=0 / nr=0 / decimate=1 / interlaced=0 / bluray_compat=0 / stitchable=1 / constrained_intra=0 / bframes=2 / b_pyramid=0 / b_adapt=2 / b_bias=0 / direct=3 / weightb=1 / open_gop=0 / weightp=2 / keyint=240 / keyint_min=121 / scenecut=0 / intra_refresh=0 / rc_lookahead=48 / rc=2pass / mbtree=1 / bitrate=5000 / ratetol=1.0 / qcomp=0.50 / qpmin=6 / qpmax=51 / qpstep=4 / cplxblur=20.0 / qblur=0.5 / vbv_maxrate=7500 / vbv_bufsize=10000 / nal_hrd=vbr / filler=0 / ip_ratio=1.40 / aq=1:1.00 Language : English Default : Yes Forced : No Audio #1 ID : 2 Format : E-AC-3 Format/Info : Enhanced AC-3 Commercial name : Dolby Digital Plus Codec ID : A_EAC3 Duration : 1 h 40 min Bit rate mode : Constant Bit rate : 640 kb/s Channel(s) : 6 channels Channel layout : L R C LFE Ls Rs Sampling rate : 48.0 kHz Frame rate : 31.250 FPS (1536 SPF) Compression mode : Lossy Stream size : 459 MiB (10%) Title : Latino Language : Spanish Service kind : Complete Main Default : Yes Forced : No Audio #2 ID : 3 Format : E-AC-3 JOC Format/Info : Enhanced AC-3 with Joint Object Coding Commercial name : Dolby Digital Plus with Dolby Atmos Codec ID : A_EAC3 Duration : 1 h 40 min Bit rate mode : Constant Bit rate : 768 kb/s Channel(s) : 6 channels Channel layout : L R C LFE Ls Rs Sampling rate : 48.0 kHz Frame rate : 31.250 FPS (1536 SPF) Compression mode : Lossy Stream size : 551 MiB (13%) Title : Ingles Language : English Service kind : Complete Main Default : No Forced : No Complexity index : 16 Number of dynamic objects : 15 Bed channel count : 1 channel Bed channel configuration : LFE Text #1 ID : 4 Format : UTF-8 Codec ID : S_TEXT/UTF8 Codec ID/Info : UTF-8 Plain Text Duration : 1 h 38 min Bit rate : 60 b/s Frame rate : 0.235 FPS Count of elements : 1387 Stream size : 43.8 KiB (0%) Title : Latino Language : Spanish Default : No Forced : No Text #2 ID : 5 Format : UTF-8 Codec ID : S_TEXT/UTF8 Codec ID/Info : UTF-8 Plain Text Duration : 1 h 38 min Bit rate : 2 b/s Frame rate : 0.015 FPS Count of elements : 91 Stream size : 1.87 KiB (0%) Title : Forzados Language : Spanish Default : Yes Forced : No Text #3 ID : 6 Format : UTF-8 Codec ID : S_TEXT/UTF8 Codec ID/Info : UTF-8 Plain Text Duration : 1 h 37 min Bit rate : 67 b/s Frame rate : 0.251 FPS Count of elements : 1474 Stream size : 48.3 KiB (0%) Title : Ingles Language : English Default : No Forced : No CAPTURAS DESCARGA Todos los links son Intercambiables! Hidden content Click aquí para descargar desde 1Cloudfile CONTRASEÑA www.club-hd.com
Sinopsis A bordo de un avión secuestrado, dos azafatas intentan burlar a sus captores en medio de unas tensas negociaciones tanto en el aire como en tierra. MEDIAINFO General Unique ID : 198754134048130211157524713052208636052 (0x9586A761A042EC11AC9E3C8A961C2094) Format : Matroska Format version : Version 4 File size : 2.10 GiB Duration : 54 min 1 s Overall bit rate mode : Variable Overall bit rate : 5 574 kb/s Frame rate : 24.000 FPS Encoded date : 2024-04-12 14:05:04 UTC Writing application : mkvmerge v49.0.0 ('Sick Of Losing Soulmates') 64-bit Writing library : libebml v1.4.0 + libmatroska v1.6.1 Uploader : Brady Web : www.club-hd.com Video ID : 1 Format : AVC Format/Info : Advanced Video Codec Format profile : Main@L4 Format settings : CABAC / 3 Ref Frames Format settings, CABAC : Yes Format settings, Reference frames : 3 frames Codec ID : V_MPEG4/ISO/AVC Duration : 54 min 1 s Bit rate mode : Variable Bit rate : 5 000 kb/s Maximum bit rate : 7 500 kb/s Width : 1 920 pixels Height : 1 080 pixels Display aspect ratio : 16:9 Frame rate mode : Constant Frame rate : 24.000 FPS Color space : YUV Chroma subsampling : 4:2:0 Bit depth : 8 bits Scan type : Progressive Bits/(Pixel*Frame) : 0.100 Stream size : 1.81 GiB (86%) Writing library : x264 core 148 r2727 7d026e8 Encoding settings : cabac=1 / ref=3 / deblock=1:0:0 / analyse=0x1:0x111 / me=umh / subme=10 / psy=1 / psy_rd=1.00:0.00 / mixed_ref=1 / me_range=24 / chroma_me=1 / trellis=2 / 8x8dct=0 / cqm=0 / deadzone=21,11 / fast_pskip=1 / chroma_qp_offset=-2 / threads=6 / lookahead_threads=1 / sliced_threads=0 / nr=0 / decimate=1 / interlaced=0 / bluray_compat=0 / stitchable=1 / constrained_intra=0 / bframes=2 / b_pyramid=0 / b_adapt=2 / b_bias=0 / direct=3 / weightb=1 / open_gop=0 / weightp=2 / keyint=240 / keyint_min=121 / scenecut=0 / intra_refresh=0 / rc_lookahead=48 / rc=2pass / mbtree=1 / bitrate=5000 / ratetol=1.0 / qcomp=0.50 / qpmin=6 / qpmax=51 / qpstep=4 / cplxblur=20.0 / qblur=0.5 / vbv_maxrate=7500 / vbv_bufsize=10000 / nal_hrd=vbr / filler=0 / ip_ratio=1.40 / aq=1:1.00 Language : Spanish Default : Yes Forced : No Audio ID : 2 Format : E-AC-3 JOC Format/Info : Enhanced AC-3 with Joint Object Coding Commercial name : Dolby Digital Plus with Dolby Atmos Codec ID : A_EAC3 Duration : 54 min 1 s Bit rate mode : Constant Bit rate : 768 kb/s Channel(s) : 6 channels Channel layout : L R C LFE Ls Rs Sampling rate : 48.0 kHz Frame rate : 31.250 FPS (1536 SPF) Compression mode : Lossy Stream size : 297 MiB (14%) Title : Latino Language : Spanish Service kind : Complete Main Default : Yes Forced : No Complexity index : 16 Number of dynamic objects : 15 Bed channel count : 1 channel Bed channel configuration : LFE Text #1 ID : 3 Format : UTF-8 Codec ID : S_TEXT/UTF8 Codec ID/Info : UTF-8 Plain Text Duration : 48 min 37 s Bit rate : 65 b/s Frame rate : 0.226 FPS Count of elements : 659 Stream size : 23.4 KiB (0%) Title : Latino Language : Spanish Default : No Forced : No Text #2 ID : 4 Format : UTF-8 Codec ID : S_TEXT/UTF8 Codec ID/Info : UTF-8 Plain Text Duration : 958 ms Bit rate : 50 b/s Frame rate : 1.044 FPS Count of elements : 1 Stream size : 6.00 Bytes (0%) Title : Forzados Language : Spanish Default : Yes Forced : No CAPTURAS DESCARGA Todos los links son Intercambiables! Hidden content Click aquí para descargar desde 1Cloudfile CONTRASEÑA www.club-hd.com
Sinopsis El Campeonato Universal Indiscutible de la WWE estará en juego cuando Roman Reigns defienda su título contra el ganador del Royal Rumble 2024, Cody Rhodes. El guerrero escocés Drew McIntyre finalmente tendrá su oportunidad de ganar un título mundial frente a las masas cuando se enfrente al campeón mundial de peso pesado Seth "Freakin" Rollins en The Showcase of the Immortals. Además de una gran pelea por equipos en la noche 1, donde Cody Rhodes y el campeón mundial de peso pesado Seth "Freakin" Rollins se enfrentarán cara a cara con Dwayne "The Rock" Johnson y el campeón universal indiscutible de la WWE Roman Reigns en una pelea con enormes implicaciones para WrestleMania. Bayley está empeñada en hacerse con la Campeona Femenina de la WWE cuando vaya a la guerra contra su antiguo aliado IYO SKY en WrestleMania. 'Mami' Rhea Ripley defiende su título mundial femenino contra 'The Man' Becky Lynch en lo que debería ser una pelea de campeonato legendaria y muchas más. MEDIAINFO General Unique ID : 185192758629908121870028491598536371418 (0x8B52D3F369206707A411E02CE54FECDA) Format : Matroska Format version : Version 4 File size : 12.9 GiB Duration : 3 h 50 min Overall bit rate : 8 011 kb/s Frame rate : 30.000 FPS Encoded date : 2024-04-09 20:54:08 UTC Writing application : mkvmerge v49.0.0 ('Sick Of Losing Soulmates') 64-bit Writing library : libebml v1.4.0 + libmatroska v1.6.1 Uploader : Brady Web : www.club-hd.com Video ID : 1 Format : AVC Format/Info : Advanced Video Codec Format profile : [email protected] Format settings : CABAC / 4 Ref Frames Format settings, CABAC : Yes Format settings, Reference frames : 4 frames Codec ID : V_MPEG4/ISO/AVC Duration : 3 h 50 min Bit rate : 7 808 kb/s Width : 1 920 pixels Height : 1 080 pixels Display aspect ratio : 16:9 Frame rate mode : Constant Frame rate : 30.000 FPS Color space : YUV Chroma subsampling : 4:2:0 Bit depth : 8 bits Scan type : Progressive Bits/(Pixel*Frame) : 0.126 Stream size : 12.5 GiB (97%) Writing library : x264 core 164 r3153 5f84d40 Encoding settings : cabac=1 / ref=2 / deblock=1:0:0 / analyse=0x3:0x113 / me=hex / subme=6 / psy=1 / psy_rd=1.00:0.00 / mixed_ref=1 / me_range=16 / chroma_me=1 / trellis=1 / 8x8dct=1 / cqm=0 / deadzone=21,11 / fast_pskip=1 / chroma_qp_offset=-2 / threads=24 / lookahead_threads=4 / sliced_threads=0 / nr=0 / decimate=1 / interlaced=0 / bluray_compat=0 / constrained_intra=0 / bframes=2 / b_pyramid=2 / b_adapt=1 / b_bias=0 / direct=1 / weightb=1 / open_gop=0 / weightp=1 / keyint=60 / keyint_min=31 / scenecut=0 / intra_refresh=0 / rc_lookahead=30 / rc=2pass / mbtree=1 / bitrate=7808 / ratetol=1.0 / qcomp=0.60 / qpmin=0 / qpmax=69 / qpstep=4 / cplxblur=20.0 / qblur=0.5 / vbv_maxrate=7808 / vbv_bufsize=15616 / nal_hrd=none / filler=0 / ip_ratio=1.40 / aq=1:1.00 Language : English Default : Yes Forced : No Audio #1 ID : 2 Format : AAC LC Format/Info : Advanced Audio Codec Low Complexity Codec ID : A_AAC-2 Duration : 3 h 50 min Bit rate : 129 kb/s Channel(s) : 2 channels Channel layout : L R Sampling rate : 48.0 kHz Frame rate : 46.875 FPS (1024 SPF) Compression mode : Lossy Stream size : 212 MiB (2%) Title : Latino Language : Spanish Default : Yes Forced : No Audio #2 ID : 3 Format : AAC LC Format/Info : Advanced Audio Codec Low Complexity Codec ID : A_AAC-2 Duration : 3 h 50 min Bit rate : 128 kb/s Channel(s) : 2 channels Channel layout : L R Sampling rate : 48.0 kHz Frame rate : 46.875 FPS (1024 SPF) Compression mode : Lossy Stream size : 211 MiB (2%) Title : Ingles Language : English Default : No Forced : No CAPTURAS DESCARGA Todos los links son Intercambiables! Hidden content Click aquí para descargar desde 1Cloudfile CONTRASEÑA www.club-hd.com
Sinopsis El Campeonato Universal Indiscutible de la WWE estará en juego cuando Roman Reigns defienda su título contra el ganador del Royal Rumble 2024, Cody Rhodes. El guerrero escocés Drew McIntyre finalmente tendrá su oportunidad de ganar un título mundial frente a las masas cuando se enfrente al campeón mundial de peso pesado Seth "Freakin" Rollins en The Showcase of the Immortals. Además de una gran pelea por equipos en la noche 1, donde Cody Rhodes y el campeón mundial de peso pesado Seth "Freakin" Rollins se enfrentarán cara a cara con Dwayne "The Rock" Johnson y el campeón universal indiscutible de la WWE Roman Reigns en una pelea con enormes implicaciones para WrestleMania. Bayley está empeñada en hacerse con la Campeona Femenina de la WWE cuando vaya a la guerra contra su antiguo aliado IYO SKY en WrestleMania. 'Mami' Rhea Ripley defiende su título mundial femenino contra 'The Man' Becky Lynch en lo que debería ser una pelea de campeonato legendaria y muchas más. MEDIAINFO General Unique ID : 329605830711044652831246064251941023391 (0xF7F7C61FB183750FAD6028EF09F9EE9F) Format : Matroska Format version : Version 4 File size : 14.4 GiB Duration : 4 h 17 min Overall bit rate : 8 014 kb/s Frame rate : 30.000 FPS Encoded date : 2024-04-11 07:05:40 UTC Writing application : mkvmerge v49.0.0 ('Sick Of Losing Soulmates') 64-bit Writing library : libebml v1.4.0 + libmatroska v1.6.1 Uploader : Brady Web : www.club-hd.com Video ID : 1 Format : AVC Format/Info : Advanced Video Codec Format profile : [email protected] Format settings : CABAC / 4 Ref Frames Format settings, CABAC : Yes Format settings, Reference frames : 4 frames Codec ID : V_MPEG4/ISO/AVC Duration : 4 h 17 min Bit rate : 7 808 kb/s Width : 1 920 pixels Height : 1 080 pixels Display aspect ratio : 16:9 Frame rate mode : Constant Frame rate : 30.000 FPS Color space : YUV Chroma subsampling : 4:2:0 Bit depth : 8 bits Scan type : Progressive Bits/(Pixel*Frame) : 0.126 Stream size : 14.0 GiB (97%) Writing library : x264 core 164 r3153 5f84d40 Encoding settings : cabac=1 / ref=2 / deblock=1:0:0 / analyse=0x3:0x113 / me=hex / subme=6 / psy=1 / psy_rd=1.00:0.00 / mixed_ref=1 / me_range=16 / chroma_me=1 / trellis=1 / 8x8dct=1 / cqm=0 / deadzone=21,11 / fast_pskip=1 / chroma_qp_offset=-2 / threads=24 / lookahead_threads=4 / sliced_threads=0 / nr=0 / decimate=1 / interlaced=0 / bluray_compat=0 / constrained_intra=0 / bframes=2 / b_pyramid=2 / b_adapt=1 / b_bias=0 / direct=1 / weightb=1 / open_gop=0 / weightp=1 / keyint=60 / keyint_min=31 / scenecut=0 / intra_refresh=0 / rc_lookahead=30 / rc=2pass / mbtree=1 / bitrate=7808 / ratetol=1.0 / qcomp=0.60 / qpmin=0 / qpmax=69 / qpstep=4 / cplxblur=20.0 / qblur=0.5 / vbv_maxrate=7808 / vbv_bufsize=15616 / nal_hrd=none / filler=0 / ip_ratio=1.40 / aq=1:1.00 Language : English Default : Yes Forced : No Audio #1 ID : 2 Format : AAC LC Format/Info : Advanced Audio Codec Low Complexity Codec ID : A_AAC-2 Duration : 4 h 17 min Bit rate : 129 kb/s Channel(s) : 2 channels Channel layout : L R Sampling rate : 48.0 kHz Frame rate : 46.875 FPS (1024 SPF) Compression mode : Lossy Stream size : 237 MiB (2%) Title : Latino Language : Spanish Default : Yes Forced : No Audio #2 ID : 3 Format : AAC LC Format/Info : Advanced Audio Codec Low Complexity Codec ID : A_AAC-2 Duration : 4 h 17 min Bit rate : 129 kb/s Channel(s) : 2 channels Channel layout : L R Sampling rate : 48.0 kHz Frame rate : 46.875 FPS (1024 SPF) Compression mode : Lossy Stream size : 237 MiB (2%) Title : Ingles Language : English Default : No Forced : No CAPTURAS DESCARGA Todos los links son Intercambiables! Hidden content Click aquí para descargar desde 1Cloudfile CONTRASEÑA www.club-hd.com
SINOPSIS Mientras las jóvenes bailarinas Irma y Olga intentan mantenerse firmes en el exigente mundo del ballet de Ámsterdam en la década de 1970, Olga se presenta como la nueva gran estrella del Royal Ballet. Pronto descubre el lado oscuro de su talento e Irma tiene que observar cómo su mejor amiga sucumbe a la presión de actuar y se pierde en la vida nocturna. TRAILER DATOS TÉCNICOS: Video: 1080p H264 MP4 | Audios: Castellano AAC 2.0, Neerlandés AAC 2.0 | Subtítulos: Srt | Peso: 4.85 GB DESCARGA ⭐ 1 LINK MP4 VIP + VER ONLINE ⭐ Hidden content LINKS FREE PÚBLICOS ¡Click aquí para descargar desde 1CloudFile sin limites! Descargar Piece of My Heart 2022 1080p en Full HD.
SINOPSIS Teresa espera paciente la llegada del Inquisidor para ser juzgada. De su visita y de sus palabras dependerá su futuro: libertad, cárcel o la hoguera. Adaptación de la obra de teatro “La lengua en pedazos” de Juan Mayorga, basada en la figura de Santa Teresa de Jesús, también conocida como “Santa Teresa de Ávila”. Premios 2023: Premios Forqué: Nominada a Mejor interpretación femenina. 2023: Premios Feroz: Nominada a Feroz Arrebato de ficción (Premio Especial). TRAILER DATOS TÉCNICOS: Video: 1080p H264 MP4 | Audios: Castellano AAC 2.0 | Subtítulos: Srt | Peso: 4.11 GB DESCARGA ⭐ 1 LINK MP4 VIP + VER ONLINE ⭐ Hidden content LINKS FREE PÚBLICOS ¡Click aquí para descargar desde 1CloudFile sin limites! Descargar Teresa 2023 1080p en Full HD.
SINOPSIS Dos ratones: Vini, un carismático poeta con un terrible miedo escénico, y Tito, un talentoso y encantador guitarrista. Cuando llega el diluvio, solo se permite que un macho y una hembra de cada especie suban al Arca de Noé. Con la ayuda de una ingeniosa cucaracha y buena suerte, Vini y Tito se cuelan en el Arca y juntos intentarán evitar el enfrentamiento entre carnívoros y herbívoros. ¿Podrán estos talentosos polizones usar la música para romper la tensión y ayudar a todas las especies a convivir sin comerse unos a otros durante 40 días y 40 noches? TRAILER DATOS TÉCNICOS: Video: 1080p H264 MP4 | Audios: Español Latino AAC 5.1, Inglés AAC 5.1 | Subtítulos: Srt | Peso: 3.17 GB DESCARGA ⭐ 1 LINK MP4 VIP + VER ONLINE ⭐ Hidden content LINKS FREE PÚBLICOS ¡Click aquí para descargar desde 1CloudFile sin limites! Descargar Noah's Ark 2024 1080p en Full HD.
SINOPSIS Nic na sile 2024... Oliwia es una chef de la gran ciudad que vive la vida que siempre soñó. A pesar de haberse alejado de sus raíces rústicas debido al distanciamiento entre su madre y su abuela, después de que su madre vendiera parte de las tierras familiares, Oliwia se ve obligada a regresar a su pintoresco pueblo tras el fallecimiento de su abuela Helina. Pero al llegar, se entera de que su abuela le ha tendido una trampa decidida a salvar la granja familiar. TRAILER DATOS TÉCNICOS: Video: 1080p H264 MP4 | Audios: Castellano AAC 5.1, Polaco AAC 5.1 | Subtítulos: Srt | Peso: 3.76 GB DESCARGA ⭐ 1 LINK MP4 VIP + VER ONLINE ⭐ Hidden content LINKS FREE PÚBLICOS ¡Click aquí para descargar desde 1CloudFile sin limites! Descargar No pressure 2024 1080p en Full HD.
SINOPSIS The Wages of Fear 2024... Cuatro hombres son contratados para transportar nitroglicerina a través de Sudamérica sin el equipo de seguridad adecuado. TRAILER DATOS TÉCNICOS: Video: 1080p H264 MP4 | Audios: Español Latino AAC 5.1, Francés AAC 5.1 | Subtítulos: Srt | Peso: 3.86 GB DESCARGA ⭐ 1 LINK MP4 VIP + VER ONLINE ⭐ Hidden content LINKS FREE PÚBLICOS ¡Click aquí para descargar desde 1CloudFile sin limites! Descargar Le salaire de la peur 2024 1080p en Full HD.
SINOPSIS Un catastrófico descarrilamiento de tren sume a la ciudad en una espiral de caos. Pero el descarrilamiento es sólo el principio. Un ataque biológico con gas provoca el colapso y la muerte de los supervivientes en cuestión de minutos. Y la enfermedad se extiende rápidamente. TRAILER DATOS TÉCNICOS: Video: 1080p H264 MP4 | Audios: Castellano AAC 2.0, Inglés AAC 2.0 | Subtítulos: Srt | Peso: 5.22 GB DESCARGA ⭐ 1 LINK MP4 VIP + VER ONLINE ⭐ Hidden content LINKS FREE PÚBLICOS ¡Click aquí para descargar desde 1CloudFile sin limites! Descargar Contagion of Fear 2024 1080p en Full HD.
SINOPSIS Cuando su hijo y la pareja de su hijo mueren en un accidente automovilístico, Joseph debe decidir cómo ser el abuelo del bebé que esperaban a través de un vientre subrogado. TRAILER DATOS TÉCNICOS: Video: 1080p H264 MP4 | Audios: Castellano AAC 2.0, Francés AAC 2.0 | Subtítulos: Srt | Peso: 4.47 GB DESCARGA ⭐ 1 LINK MP4 VIP + VER ONLINE ⭐ Hidden content LINKS FREE PÚBLICOS ¡Click aquí para descargar desde 1CloudFile sin limites! Descargar La Petite 2023 1080p en Full HD.
Ficha Tecnica Título Original: Fallout (Serie de TV) Año: 2024 Duración: 58 min. País: Estados Unidos Director: Geneva Robertson-Dworet, Graham Wagner, Jonathan Nolan, Wayne Yip, Clare Kilner, Fred Toye, Daniel Gray Longino Guion: Geneva Robertson-Dworet, Graham Wagner, Chaz Hawkins, Karey Dornetto, Kieran Fitzgerald, Carson D. Mell, Gursimran Sandhu. Videojuego: Bethesda. Historia: Chaz Hawkins Reparto: Ella Purnell, Aaron Moten, Walton Goggins, Kyle MacLachlan, Xelia Mendes-Jones, Moises Arias, Leslie Uggams, Zach Cherry, Dave Register, Annabel O'Hagan, Rod Luzzi, Sarita Choudhury, Frances Turner Género: Serie de TV, Ciencia ficción Sinopsis Basado en una de las sagas de videojuegos más importantes de todos los tiempos, es la historia de los que tienen y de los que no tienen en un mundo en el que prácticamente no queda nada que tener. 200 años después del apocalipsis, los apacibles habitantes de los refugios de lujo se ven obligados a regresar al infierno irradiado que dejaron sus antepasados y se sorprenden al descubrir que les espera un universo increíblemente complejo, alegremente extraño y muy violento. Estreno en Prime Video: 11 de abril 2024. MEDIAINFO Formato : Matroska Formato de la versión : Version 4 Tamaño de archivo : 5,01 GiB Duración : 1 h 14 min Tasa de bits general : 9 561 kb/s Velocidad de fotogramas : 24,000 FPS Película : [Club-HD] Fallout S01 [1080p] Fecha de codificación : 2024-04-11 04:53:46 UTC Aplicación de codifición : mkvmerge v82.0 ('I'm The President') 64-bit Librería de codificación : libebml v1.4.5 + libmatroska v1.7.1 Pagina Web : www.club-hd.com Uploader : Sider Vídeo ID : 1 Formato : AVC Formato/Info : Advanced Video Codec Formato del perfil : High@L4 Ajustes del formato : CABAC / 4 Ref Frames Ajustes del formato, CABAC : Sí Ajustes del formato, RefFrames : 4 fotogramas ID códec : V_MPEG4/ISO/AVC Duración : 1 h 14 min Tipo de tasa de bits : Constante Tasa de bits : 8 091 kb/s Tasa de bits nominal : 10 000 kb/s Ancho : 1 920 píxeles Alto : 1 080 píxeles Relación de aspecto : 16:9 Modo velocidad fotogramas : Constante Velocidad de fotogramas : 24,000 FPS Espacio de color : YUV Submuestreo croma : 4:2:0 Profundidad bits : 8 bits Tipo barrido : Progresivo Bits/(píxel*fotograma) : 0.163 Tamaño de pista : 4,24 GiB (85%) Título : [Club-HD] Fallout S01 [1080p] Idioma : Inglés Default : Sí Forced : No Rango de color : Limited Colores primarios : BT.709 Características transferencia : BT.709 Coeficientes matriz : BT.709 Audio #1 ID : 2 Formato : E-AC-3 Formato/Info : Enhanced AC-3 Nombre comercial : Dolby Digital Plus ID códec : A_EAC3 Duración : 1 h 14 min Tipo de tasa de bits : Constante Tasa de bits : 640 kb/s Canal(es) : 6 canales Channel layout : L R C LFE Ls Rs Velocidad de muestreo : 48,0 kHz Velocidad de fotogramas : 31,250 FPS (1536 SPF) Modo de compresión : Con pérdida Tamaño de pista : 343 MiB (7%) Título : Español latino [Sider] Idioma : Español Service kind : Complete Main Default : No Forced : No Audio #2 ID : 3 Formato : E-AC-3 Formato/Info : Enhanced AC-3 Nombre comercial : Dolby Digital Plus ID códec : A_EAC3 Duración : 1 h 14 min Tipo de tasa de bits : Constante Tasa de bits : 640 kb/s Canal(es) : 6 canales Channel layout : L R C LFE Ls Rs Velocidad de muestreo : 48,0 kHz Velocidad de fotogramas : 31,250 FPS (1536 SPF) Modo de compresión : Con pérdida Tamaño de pista : 343 MiB (7%) Título : Inglés [Sider] Idioma : Inglés Service kind : Complete Main Default : No Forced : No Texto #1 ID : 4 Formato : UTF-8 ID códec : S_TEXT/UTF8 ID códec/Info : UTF-8 Plain Text Título : Español latino [F] [Sider] Idioma : Español Default : Sí Forced : No Texto #2 ID : 5 Formato : UTF-8 ID códec : S_TEXT/UTF8 ID códec/Info : UTF-8 Plain Text Título : Español latino [C] [Sider] Idioma : Español Default : No Forced : No Menú 00:00:00.000 : en:Studio Logo 00:00:16.000 : en:Scene 2 00:03:22.000 : en:Scene 3 00:07:03.000 : en:Title Sequence 00:07:11.000 : en:Scene 5 00:09:03.000 : en:Scene 6 00:12:03.000 : en:Scene 7 00:15:50.000 : en:Scene 8 00:17:36.000 : en:Scene 9 00:18:33.000 : en:Scene 10 00:20:23.000 : en:Scene 11 00:26:16.000 : en:Scene 12 00:31:00.000 : en:Scene 13 00:33:37.000 : en:Scene 14 00:37:22.000 : en:Scene 15 00:38:58.000 : en:Scene 16 00:40:49.000 : en:Scene 17 00:41:26.000 : en:Scene 18 00:43:37.000 : en:Scene 19 00:44:54.000 : en:Scene 20 00:47:58.000 : en:Scene 21 00:50:01.000 : en:Scene 22 00:54:50.000 : en:Scene 23 00:56:01.000 : en:Scene 24 00:59:20.000 : en:Scene 25 01:06:09.000 : en:End Credits 01:07:37.000 : en:Next on 01:09:57.000 : en:End Credits CAPTURAS ENLACES VIP 1 LINK VIP Hidden content ENLACES FREE Click aquí para descargar desde Fireload Click aquí para descargar desde 1Cloudfile Click aquí para descargar desde Qiwi CONTRASEÑA www.club-hd.com
Ray Waller, una estrella del béisbol obligada a retirarse prematuramente a causa de una enfermedad degenerativa, se muda a una nueva casa con su esposa Eve, su hija adolescente Izzy y su hijo pequeño Elliot. Con la esperanza secreta de recuperarse y volver al deporte profesional, Ray convence a Eve de que la fabulosa piscina del jardín de su nuevo hogar será divertida para los niños y le servirá a él como terapia física. Pero un oscuro secreto del pasado de la casa desatará una fuerza malévola que arrastrará a toda la familia a las insondables profundidades del terror más asfixiante. 4.8 ⭐ 1 LINK MKV VIP ⭐ Hidden content LINKS FREE PÚBLICOS ¡Click aquí para descargar desde 1cloudfile! "Solo Audio Latino"
Ficha Tecnica Título Original: Kung Fu Panda 4 Año: 2024 Duración: 94 min. País: Estados Unidos Director: Mike Mitchell, Stephanie Stine Guion: Jonathan Aibel, Glenn Berger Reparto: Jack Black, Awkwafina, Viola Davis, Dustin Hoffman, James Hong, Bryan Cranston, Ian McShane, Ke Huy Quan, Ronny Chieng Género: Animación, Comedia, Acción Sinopsis Po, quien se convertirá en el Maestro Espiritual del Valle de la Paz, busca a su sucesor como el nuevo Guerrero Dragón mientras lucha contra una nueva enemiga llamada "La Camaleona". MEDIAINFO Formato : Matroska Formato de la versión : Version 4 Tamaño de archivo : 16,2 GiB Duración : 1 h 33 min Tasa de bits general : 24,7 Mb/s Velocidad de fotogramas : 23,976 FPS Película : [Club-HD] Kung Fu Panda 4 [DV][HDR+][2160p] Fecha de codificación : 2024-04-09 17:34:16 UTC Aplicación de codifición : mkvmerge v82.0 ('I'm The President') 64-bit Librería de codificación : libebml v1.4.5 + libmatroska v1.7.1 Pagina Web : www.club-hd.com Uploader : Sider Vídeo ID : 1 Formato : HEVC Formato/Info : High Efficiency Video Coding Formato del perfil : Main 10@L5@High HDR format : Dolby Vision, Version 1.0, dvhe.08.06, BL+RPU, HDR10 compatible / SMPTE ST 2094 App 4, Version 1, HDR10+ Profile B compatible ID códec : V_MPEGH/ISO/HEVC Duración : 1 h 33 min Tasa de bits : 23,1 Mb/s Ancho : 3 840 píxeles Alto : 1 602 píxeles Relación de aspecto : 2,40:1 Modo velocidad fotogramas : Constante Velocidad de fotogramas : 23,976 (24000/1001) FPS Espacio de color : YUV Submuestreo croma : 4:2:0 (Type 2) Profundidad bits : 10 bits Bits/(píxel*fotograma) : 0.156 Tamaño de pista : 15,1 GiB (93%) Título : [Club-HD] Kung Fu Panda 4 [DV][HDR+][2160p] Idioma : Inglés Default : Sí Forced : No Rango de color : Limited Colores primarios : BT.2020 Características transferencia : PQ Coeficientes matriz : BT.2020 non-constant Principios color monitor masterización : Display P3 Luminancia monitor masterización : min: 0.0050 cd/m2, max: 4000 cd/m2 Nivel ligero contenido máximo : 1002 cd/m2 Nivel ligero fotograma medio máximo : 370 cd/m2 Audio #1 ID : 2 Formato : AC-3 Formato/Info : Audio Coding 3 Nombre comercial : Dolby Digital ID códec : A_AC3 Duración : 1 h 33 min Tipo de tasa de bits : Constante Tasa de bits : 384 kb/s Canal(es) : 6 canales Channel layout : L R C LFE Ls Rs Velocidad de muestreo : 48,0 kHz Velocidad de fotogramas : 31,250 FPS (1536 SPF) Modo de compresión : Con pérdida Tamaño de pista : 257 MiB (2%) Título : Español latino [Sider] Idioma : Español Service kind : Complete Main Default : Sí Forced : Sí Audio #2 ID : 3 Formato : E-AC-3 JOC Formato/Info : Enhanced AC-3 with Joint Object Coding Nombre comercial : Dolby Digital Plus with Dolby Atmos ID códec : A_EAC3 Duración : 1 h 33 min Tipo de tasa de bits : Constante Tasa de bits : 768 kb/s Canal(es) : 6 canales Channel layout : L R C LFE Ls Rs Velocidad de muestreo : 48,0 kHz Velocidad de fotogramas : 31,250 FPS (1536 SPF) Modo de compresión : Con pérdida Tamaño de pista : 514 MiB (3%) Título : Inglés [Sider] Idioma : Inglés Service kind : Complete Main Default : No Forced : No Complexity index : 16 Number of dynamic objects : 15 Bed channel count : 1 canal Bed channel configuration : LFE Texto ID : 4 Formato : UTF-8 ID códec : S_TEXT/UTF8 ID códec/Info : UTF-8 Plain Text Título : Español latino [C] [Sider] Idioma : Español Default : No Forced : No Menú 00:00:00.000 : en:Chapter 01 00:02:37.073 : en:Chapter 02 00:06:21.881 : en:Chapter 03 00:12:24.911 : en:Chapter 04 00:19:27.584 : en:Chapter 05 00:25:28.737 : en:Chapter 06 00:33:32.512 : en:Chapter 07 00:40:16.708 : en:Chapter 08 00:47:39.818 : en:Chapter 09 00:52:12.340 : en:Chapter 10 00:58:14.619 : en:Chapter 11 01:04:06.596 : en:Chapter 12 01:12:17.420 : en:Chapter 13 01:16:51.903 : en:Chapter 14 01:22:25.945 : en:Chapter 15 01:24:48.880 : en:Chapter 16 CAPTURAS ENLACES VIP 1 LINK VIP Hidden content ENLACES FREE Click aquí para descargar desde Fireload Click aquí para descargar desde 1Cloudfile Click aquí para descargar desde Qiwi CONTRASEÑA www.club-hd.com
Sinopsis Po, quien se convertirá en el Maestro Espiritual del Valle de la Paz, busca a su sucesor como el nuevo Guerrero Dragón mientras lucha contra una nueva enemiga llamada "La Camaleona". MEDIAINFO General Unique ID : 252789002161289754519866790435918554192 (0xBE2D641132AC4BC37879B048539DA450) Format : Matroska Format version : Version 4 File size : 4.99 GiB Duration : 1 h 33 min Overall bit rate : 7 624 kb/s Frame rate : 23.976 FPS Encoded date : 2024-04-09 14:54:40 UTC Writing application : mkvmerge v49.0.0 ('Sick Of Losing Soulmates') 64-bit Writing library : libebml v1.4.0 + libmatroska v1.6.1 Uploader : Brady Web : www.club-hd.com Video ID : 1 Format : AVC Format/Info : Advanced Video Codec Format profile : High@L4 Format settings : CABAC / 5 Ref Frames Format settings, CABAC : Yes Format settings, Reference frames : 5 frames Codec ID : V_MPEG4/ISO/AVC Duration : 1 h 33 min Bit rate : 6 470 kb/s Width : 1 918 pixels Height : 800 pixels Display aspect ratio : 2.40:1 Original display aspect ratio : 2.40:1 Frame rate mode : Constant Frame rate : 23.976 (24000/1001) FPS Color space : YUV Chroma subsampling : 4:2:0 Bit depth : 8 bits Scan type : Progressive Bits/(Pixel*Frame) : 0.176 Stream size : 4.23 GiB (85%) Language : English Default : Yes Forced : No Color range : Limited Color primaries : BT.709 Transfer characteristics : BT.709 Matrix coefficients : BT.709 Audio #1 ID : 2 Format : AC-3 Format/Info : Audio Coding 3 Commercial name : Dolby Digital Codec ID : A_AC3 Duration : 1 h 33 min Bit rate mode : Constant Bit rate : 384 kb/s Channel(s) : 6 channels Channel layout : L R C LFE Ls Rs Sampling rate : 48.0 kHz Frame rate : 31.250 FPS (1536 SPF) Compression mode : Lossy Stream size : 257 MiB (5%) Title : Latino Language : Spanish Service kind : Complete Main Default : Yes Forced : No Audio #2 ID : 3 Format : E-AC-3 JOC Format/Info : Enhanced AC-3 with Joint Object Coding Commercial name : Dolby Digital Plus with Dolby Atmos Codec ID : A_EAC3 Duration : 1 h 33 min Bit rate mode : Constant Bit rate : 768 kb/s Channel(s) : 6 channels Channel layout : L R C LFE Ls Rs Sampling rate : 48.0 kHz Frame rate : 31.250 FPS (1536 SPF) Compression mode : Lossy Stream size : 514 MiB (10%) Title : Ingles Language : English Service kind : Complete Main Default : No Forced : No Complexity index : 16 Number of dynamic objects : 15 Bed channel count : 1 channel Bed channel configuration : LFE Text #1 ID : 4 Format : UTF-8 Codec ID : S_TEXT/UTF8 Codec ID/Info : UTF-8 Plain Text Duration : 1 h 23 min Bit rate : 68 b/s Frame rate : 0.253 FPS Count of elements : 1272 Stream size : 42.0 KiB (0%) Title : Latino Language : Spanish Default : No Forced : No Text #2 ID : 5 Format : UTF-8 Codec ID : S_TEXT/UTF8 Codec ID/Info : UTF-8 Plain Text Duration : 1 h 26 min Bit rate : 78 b/s Frame rate : 0.325 FPS Count of elements : 1698 Stream size : 49.8 KiB (0%) Title : Ingles Language : English Default : No Forced : No CAPTURAS DESCARGA Todos los links son Intercambiables! Hidden content Click aquí para descargar desde 1Cloudfile CONTRASEÑA www.club-hd.com
SINOPSIS Dallas es una máquina de matar involucrado en un alboroto misterioso. Sus ataques contra bandas de motociclistas y laboratorios de metanfetamina enfurecen al jefe de la mafia de Las Vegas que tiene como rehén a la novia de Dallas. Pero, ¿para quién trabaja Dallas? Ni siquiera la tortura lo hará hablar... y no se detendrá hasta que se haga justicia. TRAILER DATOS TÉCNICOS: Video: 1080p H264 MP4 | Audios: Castellano AAC 5.1, Inglés AAC 5.1 | Subtítulos: Srt | Peso: 2.76 GB DESCARGA ⭐ 1 LINK MP4 VIP + VER ONLINE ⭐ Hidden content LINKS FREE PÚBLICOS ¡Click aquí para descargar desde 1CloudFile sin limites! Descargar The Weapon 2023 1080p en Full HD.
SINOPSIS Mads es un ejecutivo de marketing exitoso que viaja a Londres y termina teniendo una aventura con Joan. TRAILER DATOS TÉCNICOS: Video: 1080p H264 MP4 | Audios: Español Latino AAC 2.0, Inglés AAC 2.0 | Subtítulos: Srt | Peso: 4.08 GB DESCARGA ⭐ 1 LINK MP4 VIP + VER ONLINE ⭐ Hidden content LINKS FREE PÚBLICOS ¡Click aquí para descargar desde 1CloudFile sin limites! Descargar Borderline 2023 1080p en Full HD.
SINOPSIS Después de un ataque brutal, una joven nómada llamada Sira se niega a rendirse a su destino sin luchar y se enfrenta al terror islamista. Premios 2023: Festival de Berlín: Premio del Público (Sección Panorama) TRAILER DATOS TÉCNICOS: Video: 1080p H264 MP4 | Audios: Español Latino AAC 2.0, Francés/Fula AAC 5.1 | Subtítulos: Srt | Peso: 4.05 GB DESCARGA ⭐ 1 LINK MP4 VIP + VER ONLINE ⭐ Hidden content LINKS FREE PÚBLICOS ¡Click aquí para descargar desde 1CloudFile sin limites! Descargar Sira 2023 1080p en Full HD.
¡Aporte super exclusivo de CLUB-HD! SINOPSIS "Night Rangers" realizó una actuación única en el Key Bank State Theatre de Cleveland, donde realizaron todo su espectáculo con la Contemporary Youth Orchestra. CYO está formada por más de 90 músicos de 12 a 18 que representan a más de 40 escuelas en Ohio. Con una orquesta completa, conjuntos de metales, cuerdas y percusión, los estudiantes interpretaron las 15 canciones con el Night Ranger esta noche. Fue un espectáculo diferente a cualquier otro espectáculo de Night Ranger: no solo recaudó fondos para la Fundación Educativa de la Orquesta Juvenil Contemporánea, sino que la banda decidió filmar toda la actuación y llevarla a las masas de principio a fin. Estas interpretaciones únicas de sus grandes éxitos fueron las primeras interpretadas por una orquesta sinfónica completa. La partitura combinaba los clásicos de la banda, nuevas canciones y covers, y todo esto en conjunto hizo del concierto de Night Ranger un evento verdaderamente único en la vida. TRACKLIST: 01. Intro 02. (You Can Still) Rock In America 03. Four In The Morning 04. Sing Me Away 05. Call My Name 06. Sentimental Street 07. High Road 08. Night Ranger 09. High Enough 10. Goodbye 11. When You Close Your Eyes 12. Don't Tell Me You Love Me 13. Sister Christian TRAILER CAPTURAS MEDIAINFO CONTRASEÑA www.club-hd.com DESCARGAR ⭐ 1 LINK MKV VIP ⭐ Hidden content LINKS FREE PÚBLICOS ¡Click aquí para descargar desde 1CloudFile sin limites! Descargar 40 Years And A Night With Contemporary Youth Orchestra 2023 1080p en Full HD.
Protagonizada por Russell Crowe y Liam Hemsworth, una operación encubierta de Fuerzas Especiales en el sur de Filipinas se convierte en una brutal batalla de supervivencia que se prolonga durante 48 horas. Cuando un equipo de élite de extracción es emboscado en territorio enemigo, el oficial novato Kinney (Hemsworth) se encuentra superado por fuerzas hostiles, pero decide no dejar a nadie atrás. Con un ataque aéreo acercándose, la única esperanza de Kinney depende de las instrucciones del piloto de drones de la Fuerza Aérea, Reaper (Crowe). Kinney sufrirá peligros desconocidos donde cada movimiento podría ser el último. General Unique ID : 92563637147966980362733257867913647055 (0x45A31BA9751F83AFD66BEDEE47A8D3CF) Complete name : Land of Bad (2024) 1080p AMZN WEB-DL [1080p].mkv Format : Matroska Format version : Version 4 File size : 8.01 GiB Duration : 1 h 53 min Overall bit rate : 10.1 Mb/s Frame rate : 23.976 FPS Encoded date : 2024-04-09 00:04:39 UTC Writing application : mkvmerge v82.0 ('I'm The President') 64-bit Writing library : libebml v1.4.5 + libmatroska v1.7.1 Video ID : 1 Format : AVC Format/Info : Advanced Video Codec Format profile : High@L4 Format settings : CABAC / 4 Ref Frames Format settings, CABAC : Yes Format settings, Reference frames : 4 frames Codec ID : V_MPEG4/ISO/AVC Duration : 1 h 53 min Bit rate mode : Constant Bit rate : 8 697 kb/s Nominal bit rate : 10 000 kb/s Width : 1 920 pixels Height : 800 pixels Display aspect ratio : 2.40:1 Frame rate mode : Constant Frame rate : 23.976 (24000/1001) FPS Color space : YUV Chroma subsampling : 4:2:0 Bit depth : 8 bits Scan type : Progressive Bits/(Pixel*Frame) : 0.236 Stream size : 6.90 GiB (86%) Language : English Default : Yes Forced : No Color range : Limited Color primaries : BT.709 Transfer characteristics : BT.709 Matrix coefficients : BT.709 Audio #1 ID : 2 Format : AC-3 Format/Info : Audio Coding 3 Commercial name : Dolby Digital Codec ID : A_AC3 Duration : 1 h 53 min Bit rate mode : Constant Bit rate : 384 kb/s Channel(s) : 6 channels Channel layout : L R C LFE Ls Rs Sampling rate : 48.0 kHz Frame rate : 31.250 FPS (1536 SPF) Compression mode : Lossy Stream size : 312 MiB (4%) Title : Latino AC3 5.1 Language : Spanish Service kind : Complete Main Default : Yes Forced : No AC3_metadata cmixlev : -3.0 dB surmixlev : -3 dB Audio #2 ID : 3 Format : E-AC-3 Format/Info : Enhanced AC-3 Commercial name : Dolby Digital Plus Codec ID : A_EAC3 Duration : 1 h 53 min Bit rate mode : Constant Bit rate : 640 kb/s Channel(s) : 6 channels Channel layout : L R C LFE Ls Rs Sampling rate : 48.0 kHz Frame rate : 31.250 FPS (1536 SPF) Compression mode : Lossy Stream size : 520 MiB (6%) Title : Inglés E-AC3 5.1 Language : English Service kind : Complete Main Default : No Forced : No Audio #3 ID : 4 Format : AC-3 Format/Info : Audio Coding 3 Commercial name : Dolby Digital Codec ID : A_AC3 Duration : 1 h 53 min Bit rate mode : Constant Bit rate : 384 kb/s Channel(s) : 6 channels Channel layout : L R C LFE Ls Rs Sampling rate : 48.0 kHz Frame rate : 31.250 FPS (1536 SPF) Compression mode : Lossy Stream size : 312 MiB (4%) Title : Inglés AC3 5.1 Language : English Service kind : Complete Main Default : No Forced : No AC3_metadata cmixlev : -3.0 dB surmixlev : -3 dB Text #1 ID : 5 Format : UTF-8 Codec ID : S_TEXT/UTF8 Codec ID/Info : UTF-8 Plain Text Duration : 1 h 39 min Bit rate : 1 b/s Frame rate : 0.004 FPS Count of elements : 26 Stream size : 848 Bytes (0%) Title : Español (Latinoamericano) (Forzados) Language : Spanish (Latin America) Default : Yes Forced : No Text #2 ID : 6 Format : UTF-8 Codec ID : S_TEXT/UTF8 Codec ID/Info : UTF-8 Plain Text Duration : 1 h 47 min Bit rate : 51 b/s Frame rate : 0.192 FPS Count of elements : 1230 Stream size : 40.3 KiB (0%) Title : Español (Latinoamericano) Language : Spanish (Latin America) Default : No Forced : No Text #3 ID : 7 Format : UTF-8 Codec ID : S_TEXT/UTF8 Codec ID/Info : UTF-8 Plain Text Duration : 1 h 52 min Bit rate : 48 b/s Frame rate : 0.192 FPS Count of elements : 1295 Stream size : 40.1 KiB (0%) Title : Inglés Language : English Default : No Forced : No Text #4 ID : 8 Format : UTF-8 Codec ID : S_TEXT/UTF8 Codec ID/Info : UTF-8 Plain Text Duration : 1 h 52 min Bit rate : 58 b/s Frame rate : 0.244 FPS Count of elements : 1651 Stream size : 48.6 KiB (0%) Title : Inglés (SDH) Language : English Default : No Forced : No Menu 00:00:00.000 : en:Scene 1 01:47:11.958 : en:End Credits Hidden content Click aquí para descargar desde DooDrive Click aquí para descargar desde 1CloudFile Click aquí para descargar desde Qiwi www.club-hd.com
General Unique ID : 151610664265338359072137004065729824093 (0x720F26DDA7FE01E43A6AF81FCF1C455D) Complete name : WWE 2024 - WrestleMania XL Sunday Espanol [1080p].mkv Format : Matroska Format version : Version 4 File size : 14.4 GiB Duration : 3 h 42 min Overall bit rate mode : Variable Overall bit rate : 9 297 kb/s Frame rate : 59.940 FPS Encoded date : 2024-04-08 17:41:13 UTC Writing application : mkvmerge v82.0 ('I'm The President') 64-bit Writing library : libebml v1.4.5 + libmatroska v1.7.1 Video ID : 1 Format : AVC Format/Info : Advanced Video Codec Format profile : [email protected] Format settings : CABAC / 4 Ref Frames Format settings, CABAC : Yes Format settings, Reference frames : 4 frames Codec ID : V_MPEG4/ISO/AVC Duration : 3 h 42 min Bit rate mode : Variable Bit rate : 8 909 kb/s Maximum bit rate : 10 000 kb/s Width : 1 920 pixels Height : 1 080 pixels Display aspect ratio : 16:9 Active Format Description : Full frame 16:9 image Frame rate mode : Constant Frame rate : 59.940 (60000/1001) FPS Standard : Component Color space : YUV Chroma subsampling : 4:2:0 Bit depth : 8 bits Scan type : Progressive Bits/(Pixel*Frame) : 0.072 Stream size : 13.8 GiB (96%) Language : English Default : Yes Forced : Yes Color range : Limited Color primaries : BT.709 Transfer characteristics : BT.709 Matrix coefficients : BT.709 Audio ID : 2 Format : E-AC-3 Format/Info : Enhanced AC-3 Commercial name : Dolby Digital Plus Codec ID : A_EAC3 Duration : 3 h 42 min Bit rate mode : Constant Bit rate : 384 kb/s Channel(s) : 6 channels Channel layout : L R C LFE Ls Rs Sampling rate : 48.0 kHz Frame rate : 31.250 FPS (1536 SPF) Compression mode : Lossy Stream size : 610 MiB (4%) Title : Latino E-AC3 5.1 Language : Spanish Service kind : Complete Main Default : Yes Forced : Yes Hidden content Click aquí para descargar desde Fireload Click aquí para descargar desde DooDrive Click aquí para descargar desde Qiwi www.club-hd.com
Gracias al amigo y compañero Sider por brindar el WEB-DL PCOK WrestleMania XL comienza en Filadelfia. The Rock regresa al ring para unirse a Roman Reigns contra Cody Rhodes y Seth “Freakin” Rollins. General Unique ID : 165348653216995723285612303031577553651 (0x7C64FE040FB4AC23BFCB5A9BCF472AF3) Complete name : WWE 2024 - WrestleMania XL Saturday Espanol [1080p].mkv Format : Matroska Format version : Version 4 File size : 15.9 GiB Duration : 4 h 4 min Overall bit rate mode : Variable Overall bit rate : 9 316 kb/s Frame rate : 59.940 FPS Encoded date : 2024-04-07 06:32:49 UTC Writing application : mkvmerge v63.0.0 ('Everything') 32-bit Writing library : libebml v1.4.2 + libmatroska v1.6.4 Video ID : 1 Format : AVC Format/Info : Advanced Video Codec Format profile : [email protected] Format settings : CABAC / 4 Ref Frames Format settings, CABAC : Yes Format settings, Reference frames : 4 frames Codec ID : V_MPEG4/ISO/AVC Duration : 4 h 4 min Bit rate mode : Variable Bit rate : 8 928 kb/s Maximum bit rate : 10 000 kb/s Width : 1 920 pixels Height : 1 080 pixels Display aspect ratio : 16:9 Active Format Description : Full frame 16:9 image Frame rate mode : Constant Frame rate : 59.940 (60000/1001) FPS Standard : Component Color space : YUV Chroma subsampling : 4:2:0 Bit depth : 8 bits Scan type : Progressive Bits/(Pixel*Frame) : 0.072 Stream size : 15.2 GiB (96%) Default : Yes Forced : No Color range : Limited Color primaries : BT.709 Transfer characteristics : BT.709 Matrix coefficients : BT.709 Audio ID : 2 Format : E-AC-3 Format/Info : Enhanced AC-3 Commercial name : Dolby Digital Plus Codec ID : A_EAC3 Duration : 4 h 4 min Bit rate mode : Constant Bit rate : 384 kb/s Channel(s) : 6 channels Channel layout : L R C LFE Ls Rs Sampling rate : 48.0 kHz Frame rate : 31.250 FPS (1536 SPF) Compression mode : Lossy Stream size : 671 MiB (4%) Title : Latino E-AC3 5.1 Language : Spanish Service kind : Complete Main Default : No Forced : No Hidden content Click aquí para descargar desde DooDrive Click aquí para descargar desde 1CloudFile Click aquí para descargar desde Qiwi www.club-hd.com
Ficha Tecnica Título Original: El juicio del motín del Caine Año: 2023 Duración: 109 min. País: Estados Unidos Director: William Friedkin Guion: William Friedkin. Obra: Herman Wouk Reparto: Kiefer Sutherland, Jason Clarke, Jake Lacy, Monica Raymund, Lance Reddick, Lewis Pullman, Tom Riley, Elizabeth Anweis, Francois Battiste, Gabe Kessler, Jay Duplass, Dale Dye, Stephanie Erb, Gina Garcia, Denzel Johnson Género: Drama Sinopsis Cuando un capitán de la marina estadounidense muestra una inestabilidad mental que pone en peligro la seguridad de su barco, el primer oficial le releva y se enfrenta a un consejo de guerra por amotinamiento. Greenwald, un abogado escéptico, defiende a regañadientes a Maryk, un oficial de la marina que arrebató el control del barco a su dominante capitán Queeg mientras se encontraba atrapado en una violenta tormenta marina. Greenwald se muestra cada vez más preocupado a medida que avanza el consejo de guerra y se pregunta si lo del Caine fue un verdadero motín o simplemente los valerosos actos de un grupo de marineros que no podían confiar en su inestable líder. MEDIAINFO Formato : Matroska Formato de la versión : Version 4 Tamaño de archivo : 6,78 GiB Duración : 1 h 48 min Tasa de bits general : 8 915 kb/s Velocidad de fotogramas : 23,976 FPS Película : [Club-HD] The Caine Mutiny Court-Martial [1080p] Fecha de codificación : 2024-04-06 16:14:35 UTC Aplicación de codifición : mkvmerge v82.0 ('I'm The President') 64-bit Librería de codificación : libebml v1.4.5 + libmatroska v1.7.1 Pagina Web : www.club-hd.com Uploader : Sider Vídeo ID : 1 Formato : AVC Formato/Info : Advanced Video Codec Formato del perfil : High@L4 Ajustes del formato : CABAC / 4 Ref Frames Ajustes del formato, CABAC : Sí Ajustes del formato, RefFrames : 4 fotogramas ID códec : V_MPEG4/ISO/AVC Duración : 1 h 48 min Tipo de tasa de bits : Constante Tasa de bits : 7 873 kb/s Tasa de bits nominal : 10 000 kb/s Ancho : 1 920 píxeles Alto : 1 080 píxeles Relación de aspecto : 16:9 Modo velocidad fotogramas : Constante Velocidad de fotogramas : 23,976 (24000/1001) FPS Espacio de color : YUV Submuestreo croma : 4:2:0 Profundidad bits : 8 bits Tipo barrido : Progresivo Bits/(píxel*fotograma) : 0.158 Tamaño de pista : 5,99 GiB (88%) Título : [Club-HD] The Caine Mutiny Court-Martial [1080p] Idioma : Inglés Default : Sí Forced : No Rango de color : Limited Colores primarios : BT.709 Características transferencia : BT.709 Coeficientes matriz : BT.709 Audio #1 ID : 2 Formato : E-AC-3 Formato/Info : Enhanced AC-3 Nombre comercial : Dolby Digital Plus ID códec : A_EAC3 Duración : 1 h 48 min Tipo de tasa de bits : Constante Tasa de bits : 224 kb/s Canal(es) : 2 canales Channel layout : L R Velocidad de muestreo : 48,0 kHz Velocidad de fotogramas : 31,250 FPS (1536 SPF) Modo de compresión : Con pérdida Tamaño de pista : 174 MiB (3%) Título : Español latino [Sider] Idioma : Español Service kind : Complete Main Default : No Forced : No Audio #2 ID : 3 Formato : E-AC-3 Formato/Info : Enhanced AC-3 Nombre comercial : Dolby Digital Plus ID códec : A_EAC3 Duración : 1 h 48 min Tipo de tasa de bits : Constante Tasa de bits : 640 kb/s Canal(es) : 6 canales Channel layout : L R C LFE Ls Rs Velocidad de muestreo : 48,0 kHz Velocidad de fotogramas : 31,250 FPS (1536 SPF) Modo de compresión : Con pérdida Tamaño de pista : 498 MiB (7%) Título : Inglés [Sider] Idioma : Inglés Service kind : Complete Main Default : No Forced : No Texto #1 ID : 4 Formato : UTF-8 ID códec : S_TEXT/UTF8 ID códec/Info : UTF-8 Plain Text Título : Español latino [F] [Sider] Idioma : Español Default : Sí Forced : No Texto #2 ID : 5 Formato : UTF-8 ID códec : S_TEXT/UTF8 ID códec/Info : UTF-8 Plain Text Título : Español latino [C] [Sider] Idioma : Español Default : No Forced : No CAPTURAS ENLACES VIP 1 LINK VIP Hidden content ENLACES FREE Click aquí para descargar desde Fireload Click aquí para descargar desde 1Cloudfile Click aquí para descargar desde Qiwi CONTRASEÑA www.club-hd.com

Anuncios y Noticias sobre Club HD!

Anuncios Del Club

Todas las noticias y comunicados de Club HD están aquí.
Temas
59
Mensajes
10,3K
Temas
59
Mensajes
10,3K

Conciertos

Conciertos en 1080p

Conciertos en 1080p

Temas
194
Mensajes
31K
Temas
194
Mensajes
31K

Audios Latinos

Audios Latinos para Películas y Series

Descarga y comparte en esta sección tus audios latinos en formato AC3, E-AC3, AAC, DTS, DTS-HD, PCM, LPCM, Dolby TrueHD, y más
Temas
9,1K
Mensajes
184,6K
Temas
9,1K
Mensajes
184,6K

General

Foro Libre!

Diviértete en esta Zona creando tus propios Posts/Temas, hablando de lo que quieras usando Videos de Youtube, Imágenes o lo que se te ocurra!
Temas
324
Mensajes
3,8K
Temas
324
Mensajes
3,8K

Tutoriales

¿Tienes un tutorial útil para la comunidad? Entonces te invitamos a que lo postees aquí!
Temas
72
Mensajes
1,5K
Temas
72
Mensajes
1,5K

Zona de preguntas y respuestas

Zona en la que puedes dejar tus preguntas, dudas, curiosidades, etc... para luego ser respondidas por los miembros o el Staff del Club.
Temas
185
Mensajes
1,2K
Temas
185
Mensajes
1,2K
  • Luis_Medina35

Estadísticas del foro

Temas
25.627
Mensajes
1.356.942
Miembros
52.507
Último miembro
Beteins
Volver