• Buenos dias amigos del club. Les queremos avisar que ya recuperamos el acceso a las webs de las Membresías VIP y del Paste. Asi que ya pueden comprar sus membresías y descargar todos los estrenos nuevamente.

Descarga películas y series HD 1080p 4k en español latino gratis

Ultimos Estrenos Blu-ray

Tarot Abigail Challengers Monkey Man  No&Way&Up&2024) No Way Up (2024) Godzilla x Kong: The New Empire Kung Fu Panda 4 (2024) Bob Marley: One Love (2024) Imaginary Arthur The King (2024) Dune: Part Two Ordinary Angels (2024) Madame Web Mean Girls Justice League: Crisis on Infinite Earths - Part Two Ferrari Night Swim (2024) The Color Purple Wish Aquaman and The Lost Kingdom Anyone But You Poor Things Migration (2023) It Lives Inside The Holdovers Killers of the Flower Moon Justice League: Crisis on Infinite Earths - Part One Pet Sematary: Bloodlines

Ultimos Estrenos Streaming

Tyler Perry's Divorce in the Black Svaniti nella notte (Vanished into the Night) The Bikeriders Kingdom of the Planet of the Apes The Garfield Movie Winnie The Pooh: Blood and Honey 2 The Watchers Kimitachi wa dô ikiru ka (The Boy and the Heron) Furiosa: A Mad Max Saga Trigger Warning (2024) The Infallibles (2024) IF Ultraman: Rising (2024) Civil War Baki Hanma VS Kengan Ashura (2024) Sous la Seine (Under Paris) How to Rob a Bank Back to Black Tarot Boy Kills World Die Hart 2: Die Harter The American Society of Magical Negroes Atlas (2024) The Fall Guy Golden Kamuy (2024) Darkness of Man Ghostbusters: Frozen Empire Abigail Turtles All the Way Down (2024) The Idea of You (2024)

Series en Emision

Últimas publicaciones (Click para ver más)

Frances es una dulce e ingenua joven que, tras la muerte de su madre, se muda a Manhattan. Cuando encuentra en el metro un bolso extraviado, decide entregárselo a su legítima dueña, Greta, una pianista viuda con una desesperada necesidad de compañía. Rápidamente se convierten en amigas, pero su amistad cambia cuando se descubren las siniestras intenciones de Greta. 6.1 ⭐ 1 LINK MKV VIP ⭐ Hidden content LINKS FREE PÚBLICOS ¡Click aquí para descargar desde 1cloudfile!
¡Aporte super exclusivo de CLUB-HD! SINOPSIS "Black Sabbath: Live... Gathered In Their Masses" es un álbum en vivo lanzado por la legendaria banda de heavy metal Black Sabbath en 2013. Este álbum captura la energía y la potencia de la icónica banda en concierto, presentando interpretaciones en vivo de sus clásicos atemporales. Grabado durante la gira mundial de Black Sabbath en apoyo a su álbum de reunión "13", "Live... Gathered In Their Masses" ofrece a los fans la oportunidad de revivir la experiencia de ver a la banda en directo. Con canciones emblemáticas como "Paranoid", "War Pigs" y "Iron Man", el álbum destaca la maestría musical y la presencia escénica que han convertido a Black Sabbath en leyendas del rock. Además de las poderosas interpretaciones musicales, este álbum en vivo también capta la conexión única entre la banda y su público, creando una atmósfera emocionante y electrizante. Para los seguidores de Black Sabbath y del heavy metal en general, "Live... Gathered In Their Masses" es una joya imprescindible que refleja la grandeza y el impacto duradero de una de las bandas más influyentes de todos los tiempos. ¡Un verdadero testimonio de la magia del directo de Black Sabbath! TRAILER CAPTURAS MEDIAINFO CONTRASEÑA www.club-hd.com DESCARGA ⭐ 1 LINK MKV ⭐ Hidden content ENLACES FREE PÚBLICOS Descarga
Sinopsis Cuando un grupo de amigos infringe de manera imprudente la regla sagrada de la lectura de las cartas del Tarot -nunca se debe utilizar la baraja de otra persona-, desatan sin saberlo un mal atrapado en las cartas malditas. Uno a uno, se enfrentan cara a cara al destino y acaban en una carrera contra la muerte para escapar del futuro que las cartas predicen. MEDIAINFO General Unique ID : 34224865299108212222012644079365171714 (0x19BF782388E5311482262C25CC4AAA02) Format : Matroska Format version : Version 4 File size : 9.82 GiB Duration : 1 h 31 min Overall bit rate mode : Variable Overall bit rate : 15.3 Mb/s Frame rate : 23.976 FPS Encoded date : 2024-07-12 20:09:21 UTC Writing application : mkvmerge v49.0.0 ('Sick Of Losing Soulmates') 64-bit Writing library : libebml v1.4.0 + libmatroska v1.6.1 Uploader : Brady Web : www.club-hd.com Video ID : 1 Format : AVC Format/Info : Advanced Video Codec Format profile : [email protected] Format settings : CABAC / 5 Ref Frames Format settings, CABAC : Yes Format settings, Reference frames : 5 frames Codec ID : V_MPEG4/ISO/AVC Duration : 1 h 31 min Bit rate : 12.5 Mb/s Width : 1 920 pixels Height : 804 pixels Display aspect ratio : 2.39:1 Frame rate mode : Constant Frame rate : 23.976 (24000/1001) FPS Color space : YUV Chroma subsampling : 4:2:0 Bit depth : 8 bits Scan type : Progressive Bits/(Pixel*Frame) : 0.338 Stream size : 7.97 GiB (81%) Writing library : x264 core 164 r3107 a8b68ebf Encoding settings : cabac=1 / ref=5 / deblock=1:-1:-1 / analyse=0x3:0x133 / me=umh / subme=10 / psy=1 / psy_rd=1.00:0.15 / mixed_ref=1 / me_range=24 / chroma_me=1 / trellis=2 / 8x8dct=1 / cqm=0 / deadzone=21,11 / fast_pskip=1 / chroma_qp_offset=-3 / threads=24 / lookahead_threads=4 / sliced_threads=0 / nr=0 / decimate=1 / interlaced=0 / bluray_compat=0 / constrained_intra=0 / bframes=8 / b_pyramid=2 / b_adapt=2 / b_bias=0 / direct=3 / weightb=1 / open_gop=0 / weightp=2 / keyint=240 / keyint_min=24 / scenecut=40 / intra_refresh=0 / rc_lookahead=60 / rc=abr / mbtree=1 / bitrate=12500 / ratetol=1.0 / qcomp=0.60 / qpmin=0 / qpmax=69 / qpstep=4 / vbv_maxrate=62500 / vbv_bufsize=78125 / nal_hrd=none / filler=0 / ip_ratio=1.40 / aq=1:1.00 Language : English Default : Yes Forced : No Color range : Limited Color primaries : BT.709 Transfer characteristics : BT.709 Matrix coefficients : BT.709 Audio #1 ID : 2 Format : AC-3 Format/Info : Audio Coding 3 Commercial name : Dolby Digital Codec ID : A_AC3 Duration : 1 h 31 min Bit rate mode : Constant Bit rate : 640 kb/s Channel(s) : 6 channels Channel layout : L R C LFE Ls Rs Sampling rate : 48.0 kHz Frame rate : 31.250 FPS (1536 SPF) Compression mode : Lossy Stream size : 421 MiB (4%) Title : Latino Language : Spanish Service kind : Complete Main Default : Yes Forced : No Audio #2 ID : 3 Format : DTS XLL Format/Info : Digital Theater Systems Commercial name : DTS-HD Master Audio Codec ID : A_DTS Duration : 1 h 31 min Bit rate mode : Variable Bit rate : 2 200 kb/s Channel(s) : 6 channels Channel layout : C L R Ls Rs LFE Sampling rate : 48.0 kHz Frame rate : 93.750 FPS (512 SPF) Bit depth : 16 bits Compression mode : Lossless Stream size : 1.41 GiB (14%) Title : Ingles Language : English Default : No Forced : No Text #1 ID : 4 Format : UTF-8 Codec ID : S_TEXT/UTF8 Codec ID/Info : UTF-8 Plain Text Duration : 1 h 25 min Bit rate : 51 b/s Frame rate : 0.213 FPS Count of elements : 1090 Stream size : 32.0 KiB (0%) Title : Latino Language : Spanish Default : No Forced : No Text #2 ID : 5 Format : UTF-8 Codec ID : S_TEXT/UTF8 Codec ID/Info : UTF-8 Plain Text Duration : 1 h 23 min Bit rate : 0 b/s Frame rate : 0.004 FPS Count of elements : 21 Stream size : 419 Bytes (0%) Title : Forzados Language : Spanish Default : Yes Forced : No Text #3 ID : 6 Format : PGS Muxing mode : zlib Codec ID : S_HDMV/PGS Codec ID/Info : Picture based subtitle format used on BDs/HD-DVDs Duration : 1 h 31 min Bit rate : 29.9 kb/s Frame rate : 0.403 FPS Count of elements : 2204 Stream size : 19.5 MiB (0%) Title : Latino Language : Spanish Default : No Forced : No Text #4 ID : 7 Format : PGS Muxing mode : zlib Codec ID : S_HDMV/PGS Codec ID/Info : Picture based subtitle format used on BDs/HD-DVDs Duration : 1 h 23 min Bit rate : 517 b/s Frame rate : 0.008 FPS Count of elements : 42 Stream size : 317 KiB (0%) Title : Forzados Language : Spanish Default : No Forced : No Text #5 ID : 8 Format : PGS Muxing mode : zlib Codec ID : S_HDMV/PGS Codec ID/Info : Picture based subtitle format used on BDs/HD-DVDs Duration : 1 h 25 min Bit rate : 34.6 kb/s Frame rate : 0.447 FPS Count of elements : 2290 Stream size : 21.1 MiB (0%) Title : Ingles Language : English Default : No Forced : No CAPTURAS DESCARGA Todos los links son Intercambiables! Hidden content Hidden content CONTRASEÑA www.club-hd.com
Ficha Tecnica Título Original: Descendants: The Rise of Redaka Año: 2024 País: Estados Unidos Director: Jennifer Phang Guion: Dan Frey, Russell Sommer. Personaje: Lewis Carroll Reparto: China Anne McClain, Kylie Cantrall, Dara Renee, Rita Ora, Jeremy Swift, Brandy Norwood, Leonardo Nam, Malia Baker, Rachael Markarian, Melanie Paxson, Alex Boniello, Joshua Colley, Paolo Montalban Compañías: Disney Branded Television, Disney+, Disney Channel. Distribuidora: Disney+, Disney Channel Género: Acción. Drama. Fantástico. Musical. Viajes en el tiempo Sinopsis Las hijas de la Reina de Corazones y Cenicienta viajan al pasado para evitar un golpe de estado en Auradon. MEDIAINFO Formato : Matroska Formato de la versión : Version 4 Tamaño de archivo : 9,39 GiB Duración : 1 h 31 min Tasa de bits general : 14,6 Mb/s Velocidad de fotogramas : 24,000 FPS Película : [Club-HD] Descendants - The Rise of Red [2160p][HDR+][DV] Fecha de codificación : 2024-07-12 14:08:46 UTC Aplicación de codifición : mkvmerge v82.0 ('I'm The President') 64-bit Librería de codificación : libebml v1.4.5 + libmatroska v1.7.1 Vídeo ID : 1 Formato : HEVC Formato/Info : High Efficiency Video Coding Formato del perfil : Main 10@L5@High HDR format : Dolby Vision, Version 1.0, Profile 8.1, dvhe.08.06, BL+RPU, no metadata compression, HDR10 compatible / SMPTE ST 2086, Version HDR10, HDR10 compatible ID códec : V_MPEGH/ISO/HEVC Duración : 1 h 31 min Tasa de bits : 14,1 Mb/s Ancho : 3 840 píxeles Alto : 2 160 píxeles Relación de aspecto : 16:9 Modo velocidad fotogramas : Constante Velocidad de fotogramas : 24,000 FPS Espacio de color : YUV Submuestreo croma : 4:2:0 Profundidad bits : 10 bits Bits/(píxel*fotograma) : 0.071 Tamaño de pista : 9,06 GiB (96%) Título : [Club-HD] Descendants - The Rise of Red [2160p][HDR+][DV] Default : Sí Forced : No Rango de color : Limited Colores primarios : BT.2020 Características transferencia : PQ Coeficientes matriz : BT.2020 non-constant Principios color monitor masterización : BT.2020 Luminancia monitor masterización : min: 0.0000 cd/m2, max: 1000 cd/m2 Audio #1 ID : 2 Formato : E-AC-3 Formato/Info : Enhanced AC-3 Nombre comercial : Dolby Digital Plus ID códec : A_EAC3 Duración : 1 h 31 min Tipo de tasa de bits : Constante Tasa de bits : 256 kb/s Canal(es) : 6 canales Channel layout : L R C LFE Ls Rs Velocidad de muestreo : 48,0 kHz Velocidad de fotogramas : 31,250 FPS (1536 SPF) Modo de compresión : Con pérdida Tamaño de pista : 168 MiB (2%) Título : Español latino [Sider] Idioma : Español (LA) Service kind : Complete Main Default : Sí Forced : No Dialog Normalization : -27 dB compr : -0.28 dB mixlevel : 105 dB roomtyp : Small dialnorm_Average : -27 dB dialnorm_Minimum : -27 dB dialnorm_Maximum : -27 dB Audio #2 ID : 3 Formato : E-AC-3 Formato/Info : Enhanced AC-3 Nombre comercial : Dolby Digital Plus ID códec : A_EAC3 Duración : 1 h 31 min Tipo de tasa de bits : Constante Tasa de bits : 256 kb/s Canal(es) : 6 canales Channel layout : L R C LFE Ls Rs Velocidad de muestreo : 48,0 kHz Velocidad de fotogramas : 31,250 FPS (1536 SPF) Modo de compresión : Con pérdida Tamaño de pista : 168 MiB (2%) Título : Inglés [Sider] Idioma : Inglés Service kind : Complete Main Default : No Forced : No Dialog Normalization : -27 dB compr : -0.28 dB mixlevel : 105 dB roomtyp : Small dialnorm_Average : -27 dB dialnorm_Minimum : -27 dB dialnorm_Maximum : -27 dB Texto #1 ID : 4 Formato : UTF-8 ID códec : S_TEXT/UTF8 ID códec/Info : UTF-8 Plain Text Duración : 1 h 31 min Tasa de bits : 28 b/s Velocidad de fotogramas : 0,083 FPS Count of elements : 455 Tamaño de pista : 19,3 KiB (0%) Título : Español latino [F] [Sider] Idioma : Español (LA) Default : Sí Forced : Sí Texto #2 ID : 5 Formato : UTF-8 ID códec : S_TEXT/UTF8 ID códec/Info : UTF-8 Plain Text Duración : 1 h 31 min Tasa de bits : 76 b/s Velocidad de fotogramas : 0,278 FPS Count of elements : 1526 Tamaño de pista : 51,2 KiB (0%) Título : Español latino [C] [Sider] Idioma : Español (LA) Default : No Forced : Sí Menú 01:31:21.292 : en:Credits CAPTURAS ENLACES VIP 1 LINK VIP Hidden content ENLACES FREE Click aquí para descargar desde 1Cloudfile Click aquí para descargar desde Doodrive Click aquí para descargar desde Qiwi CONTRASEÑA www.club-hd.com
Ficha Tecnica Título Original: Descendants: The Rise of Redaka Año: 2024 País: Estados Unidos Director: Jennifer Phang Guion: Dan Frey, Russell Sommer. Personaje: Lewis Carroll Reparto: China Anne McClain, Kylie Cantrall, Dara Renee, Rita Ora, Jeremy Swift, Brandy Norwood, Leonardo Nam, Malia Baker, Rachael Markarian, Melanie Paxson, Alex Boniello, Joshua Colley, Paolo Montalban Compañías: Disney Branded Television, Disney+, Disney Channel. Distribuidora: Disney+, Disney Channel Género: Acción. Drama. Fantástico. Musical. Viajes en el tiempo Sinopsis Las hijas de la Reina de Corazones y Cenicienta viajan al pasado para evitar un golpe de estado en Auradon. MEDIAINFO Formato : Matroska Formato de la versión : Version 4 Tamaño de archivo : 4,69 GiB Duración : 1 h 31 min Modo de tasa de bits : Variable Tasa de bits general : 7 317 kb/s Velocidad de fotogramas : 24,000 FPS Película : [Club-HD] Descendants - The Rise of Red [1080p] Fecha de codificación : 2024-07-12 08:02:27 UTC Aplicación de codifición : mkvmerge v63.0.0 ('Everything') 32-bit Librería de codificación : libebml v1.4.2 + libmatroska v1.6.4 Vídeo ID : 1 Formato : AVC Formato/Info : Advanced Video Codec Formato del perfil : High@L4 Ajustes del formato : CABAC / 4 Ref Frames Ajustes del formato, CABAC : Sí Ajustes del formato, RefFrames : 4 fotogramas ID códec : V_MPEG4/ISO/AVC Duración : 1 h 31 min Tipo de tasa de bits : Variable Tasa de bits : 6 803 kb/s Tasa de bits máxima : 12,7 Mb/s Ancho : 1 920 píxeles Alto : 1 080 píxeles Relación de aspecto : 16:9 Modo velocidad fotogramas : Constante Velocidad de fotogramas : 24,000 FPS Espacio de color : YUV Submuestreo croma : 4:2:0 Profundidad bits : 8 bits Tipo barrido : Progresivo Bits/(píxel*fotograma) : 0.137 Código tiempo primer fotograma : 00:00:00;00 Tamaño de pista : 4,36 GiB (93%) Título : [Club-HD] Descendants - The Rise of Red [1080p] Default : Sí Forced : No Rango de color : Limited Colores primarios : BT.709 Características transferencia : BT.709 Coeficientes matriz : BT.709 Audio #1 ID : 2 Formato : E-AC-3 Formato/Info : Enhanced AC-3 Nombre comercial : Dolby Digital Plus ID códec : A_EAC3 Duración : 1 h 31 min Tipo de tasa de bits : Constante Tasa de bits : 256 kb/s Canal(es) : 6 canales Channel layout : L R C LFE Ls Rs Velocidad de muestreo : 48,0 kHz Velocidad de fotogramas : 31,250 FPS (1536 SPF) Modo de compresión : Con pérdida Tamaño de pista : 168 MiB (3%) Título : Español latino [Sider] Idioma : Español (LA) Service kind : Complete Main Default : Sí Forced : No Dialog Normalization : -27 dB compr : -0.28 dB mixlevel : 105 dB roomtyp : Small dialnorm_Average : -27 dB dialnorm_Minimum : -27 dB dialnorm_Maximum : -27 dB Audio #2 ID : 3 Formato : E-AC-3 Formato/Info : Enhanced AC-3 Nombre comercial : Dolby Digital Plus ID códec : A_EAC3 Duración : 1 h 31 min Tipo de tasa de bits : Constante Tasa de bits : 256 kb/s Canal(es) : 6 canales Channel layout : L R C LFE Ls Rs Velocidad de muestreo : 48,0 kHz Velocidad de fotogramas : 31,250 FPS (1536 SPF) Modo de compresión : Con pérdida Tamaño de pista : 168 MiB (3%) Título : Inglés [Sider] Idioma : Inglés Service kind : Complete Main Default : No Forced : No Dialog Normalization : -27 dB compr : -0.28 dB mixlevel : 105 dB roomtyp : Small dialnorm_Average : -27 dB dialnorm_Minimum : -27 dB dialnorm_Maximum : -27 dB Texto #1 ID : 4 Formato : UTF-8 ID códec : S_TEXT/UTF8 ID códec/Info : UTF-8 Plain Text Duración : 1 h 31 min Tasa de bits : 28 b/s Velocidad de fotogramas : 0,083 FPS Count of elements : 455 Tamaño de pista : 19,3 KiB (0%) Título : Español latino [F] [Sider] Idioma : Español (LA) Default : Sí Forced : Sí Texto #2 ID : 5 Formato : UTF-8 ID códec : S_TEXT/UTF8 ID códec/Info : UTF-8 Plain Text Duración : 1 h 31 min Tasa de bits : 76 b/s Velocidad de fotogramas : 0,278 FPS Count of elements : 1526 Tamaño de pista : 51,2 KiB (0%) Título : Español latino [C] [Sider] Idioma : Español (LA) Default : No Forced : Sí Menú 01:31:21.292 : en:Credits CAPTURAS ENLACES VIP 1 LINK VIP Hidden content ENLACES FREE Click aquí para descargar desde 1Cloudfile Click aquí para descargar desde Doodrive Click aquí para descargar desde Qiwi CONTRASEÑA www.club-hd.com
Ficha Tecnica Título Original: Exploding Kittens Año: 2024 País: Estados Unidos Director: Matthew Inman (Creador), Elan Lee (Creador), Eddie Rosas Reparto: Tom Ellis, Sasheer Zamata Fotografía: Animación Compañías: Bandera Entertainment, Chernin Entertainment, Jam Filled Entertainment, Netflix, Buzzfeed Studios, Frederator Studios. Distribuidora: Netflix Género: Serie de TV. Animación. Comedia. Gatos. Animación para adultos. Comedia absurda. Religión Sinopsis Un conflicto eterno alcanza proporciones épicas cuando tanto Dios como el Diablo son enviados a la Tierra en los cuerpos de gatos domésticos. MEDIAINFO Formato : Matroska Formato de la versión : Version 4 Tamaño de archivo : 1,09 GiB Duración : 25 min 35 s Modo de tasa de bits : Variable Tasa de bits general : 6 070 kb/s Velocidad de fotogramas : 24,000 FPS Película : [Club-HD] Exploding Kittens S01 [1080p] Fecha de codificación : 2024-07-12 07:12:50 UTC Aplicación de codifición : mkvmerge v63.0.0 ('Everything') 32-bit Librería de codificación : libebml v1.4.2 + libmatroska v1.6.4 Vídeo ID : 1 Formato : AVC Formato/Info : Advanced Video Codec Formato del perfil : Main@L4 Ajustes del formato : CABAC / 3 Ref Frames Ajustes del formato, CABAC : Sí Ajustes del formato, RefFrames : 3 fotogramas ID códec : V_MPEG4/ISO/AVC Duración : 25 min 35 s Tipo de tasa de bits : Variable Tasa de bits : 4 661 kb/s Tasa de bits nominal : 5 000 kb/s Tasa de bits máxima : 7 500 kb/s Ancho : 1 920 píxeles Alto : 1 080 píxeles Relación de aspecto : 16:9 Modo velocidad fotogramas : Constante Velocidad de fotogramas : 24,000 FPS Espacio de color : YUV Submuestreo croma : 4:2:0 Profundidad bits : 8 bits Tipo barrido : Progresivo Bits/(píxel*fotograma) : 0.094 Tamaño de pista : 853 MiB (77%) Título : [Club-HD] Exploding Kittens S01 [1080p] Librería de codificación : x264 core 148 r2727 7d026e8 Opciones de codificación : cabac=1 / ref=3 / deblock=1:0:0 / analyse=0x1:0x111 / me=umh / subme=10 / psy=1 / psy_rd=1.00:0.00 / mixed_ref=1 / me_range=24 / chroma_me=1 / trellis=2 / 8x8dct=0 / cqm=0 / deadzone=21,11 / fast_pskip=1 / chroma_qp_offset=-2 / threads=6 / lookahead_threads=1 / sliced_threads=0 / nr=0 / decimate=1 / interlaced=0 / bluray_compat=0 / stitchable=1 / constrained_intra=0 / bframes=2 / b_pyramid=0 / b_adapt=2 / b_bias=0 / direct=3 / weightb=1 / open_gop=0 / weightp=2 / keyint=240 / keyint_min=121 / scenecut=0 / intra_refresh=0 / rc_lookahead=48 / rc=2pass / mbtree=1 / bitrate=5000 / ratetol=1.0 / qcomp=0.50 / qpmin=6 / qpmax=51 / qpstep=4 / cplxblur=20.0 / qblur=0.5 / vbv_maxrate=7500 / vbv_bufsize=10000 / nal_hrd=vbr / filler=0 / ip_ratio=1.40 / aq=1:1.00 Idioma : Inglés Default : Sí Forced : No Audio #1 ID : 2 Formato : E-AC-3 Formato/Info : Enhanced AC-3 Nombre comercial : Dolby Digital Plus ID códec : A_EAC3 Duración : 25 min 35 s Tipo de tasa de bits : Constante Tasa de bits : 640 kb/s Canal(es) : 6 canales Channel layout : L R C LFE Ls Rs Velocidad de muestreo : 48,0 kHz Velocidad de fotogramas : 31,250 FPS (1536 SPF) Modo de compresión : Con pérdida Tamaño de pista : 117 MiB (11%) Título : Español latino [Sider] Idioma : Español Service kind : Complete Main Default : Sí Forced : No Dialog Normalization : -27 dB compr : -0.28 dB dialnorm_Average : -27 dB dialnorm_Minimum : -27 dB dialnorm_Maximum : -27 dB Audio #2 ID : 3 Formato : E-AC-3 JOC Formato/Info : Enhanced AC-3 with Joint Object Coding Nombre comercial : Dolby Digital Plus with Dolby Atmos ID códec : A_EAC3 Duración : 25 min 35 s Tipo de tasa de bits : Constante Tasa de bits : 768 kb/s Canal(es) : 6 canales Channel layout : L R C LFE Ls Rs Velocidad de muestreo : 48,0 kHz Velocidad de fotogramas : 31,250 FPS (1536 SPF) Modo de compresión : Con pérdida Tamaño de pista : 141 MiB (13%) Título : Inglés [Sider] Idioma : Inglés Service kind : Complete Main Default : No Forced : No Complexity index : 16 Number of dynamic objects : 15 Bed channel count : 1 canal Bed channel configuration : LFE Dialog Normalization : -27 dB compr : -0.28 dB dialnorm_Average : -27 dB dialnorm_Minimum : -27 dB dialnorm_Maximum : -27 dB Texto #1 ID : 4 Formato : UTF-8 ID códec : S_TEXT/UTF8 ID códec/Info : UTF-8 Plain Text Duración : 14 min 29 s Tasa de bits : 4 b/s Velocidad de fotogramas : 0,020 FPS Count of elements : 17 Tamaño de pista : 470 Bytes (0%) Título : Español latino [F] [Sider] Idioma : Español Default : Sí Forced : No Texto #2 ID : 5 Formato : UTF-8 ID códec : S_TEXT/UTF8 ID códec/Info : UTF-8 Plain Text Duración : 23 min 54 s Tasa de bits : 95 b/s Velocidad de fotogramas : 0,269 FPS Count of elements : 386 Tamaño de pista : 16,8 KiB (0%) Título : Español latino [C] [Sider] (For Spanish audio) Idioma : Español Default : No Forced : No Texto #3 ID : 6 Formato : UTF-8 ID códec : S_TEXT/UTF8 ID códec/Info : UTF-8 Plain Text Duración : 23 min 59 s Tasa de bits : 83 b/s Velocidad de fotogramas : 0,244 FPS Count of elements : 351 Tamaño de pista : 14,6 KiB (0%) Título : Español latino [C] [Sider] Idioma : Español Default : No Forced : No Menú 00:00:00.000 : en:Part 01 00:23:21.450 : en:Credits CAPTURAS ENLACES VIP 1 LINK VIP Hidden content ENLACES FREE Click aquí para descargar desde 1Cloudfile Click aquí para descargar desde Doodrive Click aquí para descargar desde Qiwi CONTRASEÑA www.club-hd.com
Ficha Tecnica Título Original: Tyler Perry's Divorce in the Black Año: 2024 Duración: 143 min País: Estados Unidos Director: Tyler Perry Guion: Tyler Perry Reparto: Meagan Good, Cory Hardrict, Debbi Morgan, Richard Lawson, Joseph Anderson, Art Newkirk, Taylor Polidore, Shannon Wallace, Rakeem Laws, Joe Komara, Deldric Dunning, Milan Respress, Jeffrey Creightney Compañías: Amazon MGM Studios. Distribuidora: Amazon Studios Género: Intriga. Drama Sinopsis Ava, una joven profesional bancaria, está devastada cuando su marido abandona su matrimonio. Está decidida a luchar hasta que el destino intervenga y revele las perversas hazañas que una vez sabotearon el destino de Ava. MEDIAINFO Formato : Matroska Formato de la versión : Version 4 Tamaño de archivo : 17,7 GiB Duración : 2 h 1 min Tasa de bits general : 20,8 Mb/s Velocidad de fotogramas : 23,976 FPS Película : [Club-HD] Tyler Perry's Divorce in the Black [HDR+] [2160p] Fecha de codificación : 2024-07-11 16:23:10 UTC Aplicación de codifición : mkvmerge v63.0.0 ('Everything') 32-bit Librería de codificación : libebml v1.4.2 + libmatroska v1.6.4 Vídeo ID : 1 Formato : HEVC Formato/Info : High Efficiency Video Coding Formato del perfil : Main 10@L5@Main HDR format : SMPTE ST 2094 App 4, Version 1, HDR10+ Profile B compatible ID códec : V_MPEGH/ISO/HEVC Duración : 2 h 1 min Tasa de bits : 19,6 Mb/s Ancho : 3 840 píxeles Alto : 1 600 píxeles Relación de aspecto : 2,40:1 Modo velocidad fotogramas : Constante Velocidad de fotogramas : 23,976 (24000/1001) FPS Espacio de color : YUV Submuestreo croma : 4:2:0 Profundidad bits : 10 bits Bits/(píxel*fotograma) : 0.133 Tamaño de pista : 16,6 GiB (94%) Título : [Club-HD] Tyler Perry's Divorce in the Black [HDR+] [2160p] Default : Sí Forced : No Rango de color : Limited Colores primarios : BT.2020 Características transferencia : PQ Coeficientes matriz : BT.2020 non-constant Principios color monitor masterización : Display P3 Luminancia monitor masterización : min: 0.0001 cd/m2, max: 1000 cd/m2 Nivel ligero contenido máximo : 1022 cd/m2 Nivel ligero fotograma medio máximo : 114 cd/m2 Audio #1 ID : 2 Formato : E-AC-3 Formato/Info : Enhanced AC-3 Nombre comercial : Dolby Digital Plus ID códec : A_EAC3 Duración : 2 h 1 min Tipo de tasa de bits : Constante Tasa de bits : 640 kb/s Canal(es) : 6 canales Channel layout : L R C LFE Ls Rs Velocidad de muestreo : 48,0 kHz Velocidad de fotogramas : 31,250 FPS (1536 SPF) Modo de compresión : Con pérdida Tamaño de pista : 557 MiB (3%) Título : Español latino [Sider] Idioma : Español (LA) Service kind : Complete Main Default : Sí Forced : No Dialog Normalization : -31 dB compr : -0.28 dB dialnorm_Average : -31 dB dialnorm_Minimum : -31 dB dialnorm_Maximum : -31 dB Audio #2 ID : 3 Formato : E-AC-3 Formato/Info : Enhanced AC-3 Nombre comercial : Dolby Digital Plus ID códec : A_EAC3 Duración : 2 h 1 min Tipo de tasa de bits : Constante Tasa de bits : 640 kb/s Canal(es) : 6 canales Channel layout : L R C LFE Ls Rs Velocidad de muestreo : 48,0 kHz Velocidad de fotogramas : 31,250 FPS (1536 SPF) Modo de compresión : Con pérdida Tamaño de pista : 557 MiB (3%) Título : Inglés [Sider] Idioma : Inglés Service kind : Complete Main Default : No Forced : No Dialog Normalization : -31 dB compr : -0.28 dB dialnorm_Average : -31 dB dialnorm_Minimum : -31 dB dialnorm_Maximum : -31 dB Texto #1 ID : 4 Formato : UTF-8 ID códec : S_TEXT/UTF8 ID códec/Info : UTF-8 Plain Text Duración : 1 h 52 min Tasa de bits : 0 b/s Velocidad de fotogramas : 0,000 FPS Count of elements : 3 Tamaño de pista : 93,0 Bytes (0%) Título : Español latino [F] [Sider] Idioma : Español (LA) Default : Sí Forced : Sí Texto #2 ID : 5 Formato : UTF-8 ID códec : S_TEXT/UTF8 ID códec/Info : UTF-8 Plain Text Duración : 1 h 59 min Tasa de bits : 60 b/s Velocidad de fotogramas : 0,235 FPS Count of elements : 1690 Tamaño de pista : 52,7 KiB (0%) Título : Español latino [C] [Sider] Idioma : Español (LA) Default : No Forced : Sí CAPTURAS ENLACES VIP 1 LINK VIP Hidden content ENLACES FREE Click aquí para descargar desde 1Cloudfile Click aquí para descargar desde Doodrive Click aquí para descargar desde Qiwi CONTRASEÑA www.club-hd.com
Sinopsis Ava, una joven profesional bancaria, está devastada cuando su marido abandona su matrimonio. Está decidida a luchar hasta que el destino intervenga y revele las perversas hazañas que una vez sabotearon el destino de Ava. MEDIAINFO General Unique ID : 18960204930377134309066517706591409086 (0xE439A46CAF84B1C054BA06BED1B93BE) Format : Matroska Format version : Version 4 File size : 8.04 GiB Duration : 2 h 1 min Overall bit rate : 9 471 kb/s Frame rate : 23.976 FPS Encoded date : 2024-07-12 05:38:50 UTC Writing application : mkvmerge v49.0.0 ('Sick Of Losing Soulmates') 64-bit Writing library : libebml v1.4.0 + libmatroska v1.6.1 Uploader : Brady Web : www.club-hd.com Video ID : 1 Format : AVC Format/Info : Advanced Video Codec Format profile : High@L4 Format settings : CABAC / 4 Ref Frames Format settings, CABAC : Yes Format settings, Reference frames : 4 frames Codec ID : V_MPEG4/ISO/AVC Duration : 2 h 1 min Bit rate mode : Constant Bit rate : 8 189 kb/s Nominal bit rate : 10 000 kb/s Width : 1 920 pixels Height : 800 pixels Display aspect ratio : 2.40:1 Frame rate mode : Constant Frame rate : 23.976 (24000/1001) FPS Color space : YUV Chroma subsampling : 4:2:0 Bit depth : 8 bits Scan type : Progressive Bits/(Pixel*Frame) : 0.222 Stream size : 6.95 GiB (86%) Language : English Default : Yes Forced : No Color range : Limited Color primaries : BT.709 Transfer characteristics : BT.709 Matrix coefficients : BT.709 Audio #1 ID : 2 Format : E-AC-3 Format/Info : Enhanced AC-3 Commercial name : Dolby Digital Plus Codec ID : A_EAC3 Duration : 2 h 1 min Bit rate mode : Constant Bit rate : 640 kb/s Channel(s) : 6 channels Channel layout : L R C LFE Ls Rs Sampling rate : 48.0 kHz Frame rate : 31.250 FPS (1536 SPF) Compression mode : Lossy Stream size : 557 MiB (7%) Title : Latino Language : Spanish Service kind : Complete Main Default : Yes Forced : No Audio #2 ID : 3 Format : E-AC-3 Format/Info : Enhanced AC-3 Commercial name : Dolby Digital Plus Codec ID : A_EAC3 Duration : 2 h 1 min Bit rate mode : Constant Bit rate : 640 kb/s Channel(s) : 6 channels Channel layout : L R C LFE Ls Rs Sampling rate : 48.0 kHz Frame rate : 31.250 FPS (1536 SPF) Compression mode : Lossy Stream size : 557 MiB (7%) Title : Ingles Language : English Service kind : Complete Main Default : No Forced : No Text #1 ID : 4 Format : UTF-8 Codec ID : S_TEXT/UTF8 Codec ID/Info : UTF-8 Plain Text Duration : 1 h 59 min Bit rate : 60 b/s Frame rate : 0.235 FPS Count of elements : 1690 Stream size : 52.7 KiB (0%) Title : Latino Language : Spanish Default : No Forced : No Text #2 ID : 5 Format : UTF-8 Codec ID : S_TEXT/UTF8 Codec ID/Info : UTF-8 Plain Text Duration : 1 h 52 min Bit rate : 0 b/s Frame rate : 0.000 FPS Count of elements : 3 Stream size : 93.0 Bytes (0%) Title : Forzados Language : Spanish Default : Yes Forced : No Text #3 ID : 6 Format : UTF-8 Codec ID : S_TEXT/UTF8 Codec ID/Info : UTF-8 Plain Text Duration : 2 h 0 min Bit rate : 80 b/s Frame rate : 0.302 FPS Count of elements : 2178 Stream size : 70.8 KiB (0%) Title : Ingles Language : English Default : No Forced : No CAPTURAS DESCARGA Todos los links son Intercambiables! Hidden content Hidden content CONTRASEÑA www.club-hd.com
Sinopsis Un padre inmerso en un divorcio problemático emprende una peligrosa misión cuando sus hijos desaparecen sin dejar rastro de su aislada casa de campo. MEDIAINFO General Unique ID : 73943866809005932636601541408159539567 (0x37A1121B4DCD04EA72266E5B66F9A16F) Format : Matroska Format version : Version 4 File size : 4.02 GiB Duration : 1 h 32 min Overall bit rate mode : Variable Overall bit rate : 6 211 kb/s Frame rate : 24.000 FPS Encoded date : 2024-07-12 05:24:05 UTC Writing application : mkvmerge v49.0.0 ('Sick Of Losing Soulmates') 64-bit Writing library : libebml v1.4.0 + libmatroska v1.6.1 Uploader : Brady Web : www.club-hd.com Video ID : 1 Format : AVC Format/Info : Advanced Video Codec Format profile : Main@L4 Format settings : CABAC / 3 Ref Frames Format settings, CABAC : Yes Format settings, Reference frames : 3 frames Codec ID : V_MPEG4/ISO/AVC Duration : 1 h 32 min Bit rate mode : Variable Bit rate : 5 000 kb/s Maximum bit rate : 7 500 kb/s Width : 1 920 pixels Height : 1 080 pixels Display aspect ratio : 16:9 Frame rate mode : Constant Frame rate : 24.000 FPS Color space : YUV Chroma subsampling : 4:2:0 Bit depth : 8 bits Scan type : Progressive Bits/(Pixel*Frame) : 0.100 Stream size : 3.19 GiB (79%) Writing library : x264 core 148 r2727 7d026e8 Encoding settings : cabac=1 / ref=3 / deblock=1:0:0 / analyse=0x1:0x111 / me=umh / subme=10 / psy=1 / psy_rd=1.00:0.00 / mixed_ref=1 / me_range=24 / chroma_me=1 / trellis=2 / 8x8dct=0 / cqm=0 / deadzone=21,11 / fast_pskip=1 / chroma_qp_offset=-2 / threads=6 / lookahead_threads=1 / sliced_threads=0 / nr=0 / decimate=1 / interlaced=0 / bluray_compat=0 / stitchable=1 / constrained_intra=0 / bframes=2 / b_pyramid=0 / b_adapt=2 / b_bias=0 / direct=3 / weightb=1 / open_gop=0 / weightp=2 / keyint=240 / keyint_min=121 / scenecut=0 / intra_refresh=0 / rc_lookahead=48 / rc=2pass / mbtree=1 / bitrate=5000 / ratetol=1.0 / qcomp=0.50 / qpmin=6 / qpmax=51 / qpstep=4 / cplxblur=20.0 / qblur=0.5 / vbv_maxrate=7500 / vbv_bufsize=10000 / nal_hrd=vbr / filler=0 / ip_ratio=1.40 / aq=1:1.00 Language : Italian Default : Yes Forced : No Audio #1 ID : 2 Format : E-AC-3 Format/Info : Enhanced AC-3 Commercial name : Dolby Digital Plus Codec ID : A_EAC3 Duration : 1 h 32 min Bit rate mode : Constant Bit rate : 640 kb/s Channel(s) : 6 channels Channel layout : L R C LFE Ls Rs Sampling rate : 48.0 kHz Frame rate : 31.250 FPS (1536 SPF) Compression mode : Lossy Stream size : 424 MiB (10%) Title : Latino Language : Spanish Service kind : Complete Main Default : Yes Forced : No Audio #2 ID : 3 Format : E-AC-3 Format/Info : Enhanced AC-3 Commercial name : Dolby Digital Plus Codec ID : A_EAC3 Duration : 1 h 32 min Bit rate mode : Constant Bit rate : 640 kb/s Channel(s) : 6 channels Channel layout : L R C LFE Ls Rs Sampling rate : 48.0 kHz Frame rate : 31.250 FPS (1536 SPF) Compression mode : Lossy Stream size : 424 MiB (10%) Title : Italiano Language : Italian Service kind : Complete Main Default : No Forced : No Text #1 ID : 4 Format : UTF-8 Codec ID : S_TEXT/UTF8 Codec ID/Info : UTF-8 Plain Text Duration : 1 h 27 min Bit rate : 39 b/s Frame rate : 0.153 FPS Count of elements : 803 Stream size : 25.4 KiB (0%) Title : Latino Language : Spanish Default : No Forced : No Text #2 ID : 5 Format : UTF-8 Codec ID : S_TEXT/UTF8 Codec ID/Info : UTF-8 Plain Text Duration : 1 h 19 min Bit rate : 0 b/s Frame rate : 0.003 FPS Count of elements : 12 Stream size : 176 Bytes (0%) Title : Forzados Language : Spanish Default : Yes Forced : No Text #3 ID : 6 Format : UTF-8 Codec ID : S_TEXT/UTF8 Codec ID/Info : UTF-8 Plain Text Duration : 1 h 24 min Bit rate : 43 b/s Frame rate : 0.172 FPS Count of elements : 875 Stream size : 26.9 KiB (0%) Title : Italiano Language : Italian Default : No Forced : No CAPTURAS DESCARGA Todos los links son Intercambiables! Hidden content Hidden content CONTRASEÑA www.club-hd.com
Serie de TV (2024-). 1 temporada. 10 episodios. Colegio nuevo. Familia nueva. Superpoder nuevo. Ben Vasani, un chico de 12 años, está en época de cambios, ya que acaba de descubrir que puede transformarse en cualquier persona que conozca. Así que tendrá que descubrir quién es y quién quiere ser. ⭐ 1 LINK MKV VIP ⭐ Hidden content LINKS FREE PÚBLICOS [10 Capítulos] ¡Click aquí para descargar desde 1cloudfile! "Solo Audio Latino"
SINOPSIS Les Filles d'Olfa 2023... La vida de Olfa, tunecina y madre de cuatro hijas, oscila entre la oscuridad y la luz. Un día, sus dos hijas mayores desaparecen. Premios 2023: Premios Oscar: Nominada a Mejor largometraje documental. 2023: Premios César (Francia): Mejor documental. 2023: Festival de Cannes: Nominada a Palma de Oro: Mejor película. 2023: Premios del Cine Europeo (EFA): Nominada a Mejor documental. 2023: Premios Independent Spirit Awards: Mejor largometraje documental. TRAILER DATOS TÉCNICOS: Video: 1080p H264 MP4 | Audios: Castellano AAC 5.1, Árabe AAC 5.1 | Subtítulos: Srt | Peso: 2.10 GB DESCARGA ⭐ 1 LINK MP4 VIP + VER ONLINE ⭐ Hidden content ENLACES FREE PÚBLICOS Descarga
SINOPSIS 1981 en Nueva Zelanda. La llegada del equipo de rugby de Sudáfrica desencadena protestas en todo el país contra el apartheid y el racismo. TRAILER DATOS TÉCNICOS: Video: 1080p H264 MP4 | Audios: Castellano AAC 2.0, Inglés AAC 5.1 | Subtítulos: Srt | Peso: 2.15 GB DESCARGA ⭐ 1 LINK MP4 VIP + VER ONLINE ⭐ Hidden content ENLACES FREE PÚBLICOS Descarga
Posición en rankings FA: 61° Las mejores películas de 2024 SINOPSIS Una playa de Tri-City se convierte en un lugar de dramáticos descubrimientos cuando el mar arrastra el cadáver de una joven. La inusual mutilación de la víctima apunta a un asesinato. La investigación está dirigida por un fiscal ambicioso y tenaz, Leopold Bilski. La madre de la víctima, la juez Helena Bogucka, también participa en la investigación. Todas las pistas conducen a uno de los clubes costeros, que resulta estar relacionado con el asesinato de una mujer 15 años atrás. A partir de la información recopilada durante la investigación y de las pruebas ocultas durante años, la cara oscura del Tri-City criminal va emergiendo poco a poco. Los descubrimientos de Bilski y Bogucka empiezan a ser muy incómodos para la policía local. TRAILER DATOS TÉCNICOS: Video: 1080p H264 MP4 | Audios: Español Latino AAC 5.1, Polaco AAC 5.1 | Subtítulos: Srt | Peso: 2.18 GB DESCARGA ⭐ 1 LINK MP4 VIP + VER ONLINE ⭐ Hidden content ENLACES FREE PÚBLICOS Descarga
Sinopsis Frank el Salchicha, Brenda y sus amigos cruzan un portal fuera de Shopwell en busca de sus creadores en el mundo humano. El grupo vive aventuras en este fascinante pero aterrador nuevo reino. MEDIAINFO General Unique ID : 140322616553618515282437775868700916154 (0x699127251459C8DED8E0D6005B2FF9BA) Format : Matroska Format version : Version 4 File size : 1.53 GiB Duration : 24 min 38 s Overall bit rate : 8 894 kb/s Frame rate : 24.000 FPS Encoded date : 2024-07-11 20:26:09 UTC Writing application : mkvmerge v49.0.0 ('Sick Of Losing Soulmates') 64-bit Writing library : libebml v1.4.0 + libmatroska v1.6.1 Uploader : Brady Web : www.club-hd.com Video ID : 1 Format : AVC Format/Info : Advanced Video Codec Format profile : High@L4 Format settings : CABAC / 4 Ref Frames Format settings, CABAC : Yes Format settings, Reference frames : 4 frames Codec ID : V_MPEG4/ISO/AVC Duration : 24 min 38 s Bit rate mode : Constant Bit rate : 7 612 kb/s Nominal bit rate : 10 000 kb/s Width : 1 920 pixels Height : 1 080 pixels Display aspect ratio : 16:9 Frame rate mode : Constant Frame rate : 24.000 FPS Color space : YUV Chroma subsampling : 4:2:0 Bit depth : 8 bits Scan type : Progressive Bits/(Pixel*Frame) : 0.153 Stream size : 1.31 GiB (86%) Language : English Default : Yes Forced : No Color range : Limited Color primaries : BT.709 Transfer characteristics : BT.709 Matrix coefficients : BT.709 Audio #1 ID : 2 Format : E-AC-3 Format/Info : Enhanced AC-3 Commercial name : Dolby Digital Plus Codec ID : A_EAC3 Duration : 24 min 38 s Bit rate mode : Constant Bit rate : 640 kb/s Channel(s) : 6 channels Channel layout : L R C LFE Ls Rs Sampling rate : 48.0 kHz Frame rate : 31.250 FPS (1536 SPF) Compression mode : Lossy Stream size : 113 MiB (7%) Title : Latino Language : Spanish Service kind : Complete Main Default : Yes Forced : No Audio #2 ID : 3 Format : E-AC-3 Format/Info : Enhanced AC-3 Commercial name : Dolby Digital Plus Codec ID : A_EAC3 Duration : 24 min 38 s Bit rate mode : Constant Bit rate : 640 kb/s Channel(s) : 6 channels Channel layout : L R C LFE Ls Rs Sampling rate : 48.0 kHz Frame rate : 31.250 FPS (1536 SPF) Compression mode : Lossy Stream size : 113 MiB (7%) Title : Ingles Language : English Service kind : Complete Main Default : No Forced : No Text #1 ID : 4 Format : UTF-8 Codec ID : S_TEXT/UTF8 Codec ID/Info : UTF-8 Plain Text Duration : 22 min 12 s Bit rate : 62 b/s Frame rate : 0.218 FPS Count of elements : 291 Stream size : 10.2 KiB (0%) Title : Latino Language : Spanish Default : No Forced : No Text #2 ID : 5 Format : UTF-8 Codec ID : S_TEXT/UTF8 Codec ID/Info : UTF-8 Plain Text Duration : 3 s 542 ms Bit rate : 92 b/s Frame rate : 0.282 FPS Count of elements : 1 Stream size : 41.0 Bytes (0%) Title : Forzados Language : Spanish Default : Yes Forced : No Text #3 ID : 6 Format : UTF-8 Codec ID : S_TEXT/UTF8 Codec ID/Info : UTF-8 Plain Text Duration : 21 min 9 s Bit rate : 73 b/s Frame rate : 0.256 FPS Count of elements : 325 Stream size : 11.4 KiB (0%) Title : Ingles Language : English Default : No Forced : No CAPTURAS DESCARGA Todos los links son Intercambiables! Hidden content Hidden content CONTRASEÑA www.club-hd.com
Secuela de 'Vikingos' ambientada cien años después, cuando las tensiones entre los vikingos y la realeza inglesa alcanzan un sangriento punto de ruptura y los propios vikingos chocan por sus creencias cristianas y paganas en conflicto. Leif Erikson, Freydis Eriksdóttir y Harald Hardrada comienzan un viaje épico que los llevará a través de los mares y campos de batalla, desde Kattegat hasta Inglaterra y más allá, mientras luchan por la supervivencia y la gloria. Temporada 3 y última: 2024 7.3 ⭐ 1 LINK MKV VIP ⭐ Hidden content LINKS FREE PÚBLICOS ¡Click aquí para descargar desde 1cloudfile! "Solo Audio Latino"
Como la mayoría de los adolescentes de su edad, Peter está intentando descubrir quién es y cómo ha llegado a ser lo que es. En su viaje para atar los cabos de su pasado descubre un secreto que guardaba su padre, un secreto que finalmente dará forma a su destino como Spiderman. 6.9 "Un agradecimiento al a nuestro amigo'Richter' Por compartir esta película." ⭐ 1 LINK MKV VIP ⭐ Hidden content LINKS FREE PÚBLICOS ¡Click aquí para descargar desde 1cloudfile!
Tercera entrega de las aventuras del joven Peter Parker (Maguire). Parece que Parker ha conseguido por fin el equilibrio entre su devoción por Mary Jane y sus deberes como superhéroe. Pero, de repente, su traje se vuelve negro y adquiere nuevos poderes; también él se transforma, mostrando el lado más oscuro y vengativo de su personalidad. Bajo la influencia del nuevo traje, Peter se convierte en un ser egoísta que sólo se preocupa por sí mismo. Tiene, pues, que afrontar un dilema: disfrutar de sus nuevos poderes o seguir siendo un héroe compasivo. Mientras tanto, sobre él se cierne la amenaza de dos temibles enemigos: Venom y el Hombre de Arena. 6.3 "Un agradecimiento al a nuestro amigo'Richter' Por compartir esta película." ⭐ 1 LINK MKV VIP ⭐ Hidden content LINKS FREE PÚBLICOS ¡Click aquí para descargar desde 1cloudfile!
Sinopsis A una banda de delincuentes se les ha encargado secuestrar a Abigail, una bailarina de doce años hija de una poderosa figura del inframundo. Su misión requiere también vigilarla durante la noche para poder cobrar un rescate de 50 millones de dólares. En una mansión aislada, los captores comienzan a desaparecer, uno por uno, y descubren, para su creciente horror, que la pequeña niña con la que están encerrados no es normal y está mostrando su verdadera naturaleza. MEDIAINFO General Unique ID : 186776690890763675317398465809517312002 (0x8C83E1D7345166B3BA007509191EF802) Format : Matroska Format version : Version 4 File size : 12.1 GiB Duration : 1 h 49 min Overall bit rate mode : Variable Overall bit rate : 15.8 Mb/s Frame rate : 23.976 FPS Encoded date : 2024-07-10 09:54:47 UTC Writing application : mkvmerge v49.0.0 ('Sick Of Losing Soulmates') 64-bit Writing library : libebml v1.4.0 + libmatroska v1.6.1 Uploader : Brady Web : www.club-hd.com Video ID : 1 Format : AVC Format/Info : Advanced Video Codec Format profile : [email protected] Format settings : CABAC / 5 Ref Frames Format settings, CABAC : Yes Format settings, Reference frames : 5 frames Codec ID : V_MPEG4/ISO/AVC Duration : 1 h 49 min Bit rate : 10.5 Mb/s Width : 1 920 pixels Height : 804 pixels Display aspect ratio : 2.39:1 Frame rate mode : Constant Frame rate : 23.976 (24000/1001) FPS Color space : YUV Chroma subsampling : 4:2:0 Bit depth : 8 bits Scan type : Progressive Bits/(Pixel*Frame) : 0.283 Stream size : 8.02 GiB (67%) Writing library : x264 core 164 r3191 4613ac3 Encoding settings : cabac=1 / ref=5 / deblock=1:-3:-3 / analyse=0x3:0x133 / me=umh / subme=9 / psy=1 / psy_rd=1.00:0.00 / mixed_ref=1 / me_range=16 / chroma_me=1 / trellis=2 / 8x8dct=1 / cqm=0 / deadzone=21,11 / fast_pskip=1 / chroma_qp_offset=-2 / threads=25 / lookahead_threads=2 / sliced_threads=0 / nr=0 / decimate=1 / interlaced=0 / bluray_compat=0 / constrained_intra=0 / bframes=3 / b_pyramid=2 / b_adapt=2 / b_bias=0 / direct=3 / weightb=1 / open_gop=0 / weightp=2 / keyint=250 / keyint_min=23 / scenecut=40 / intra_refresh=0 / rc_lookahead=60 / rc=crf / mbtree=1 / crf=14.5 / qcomp=0.60 / qpmin=0 / qpmax=69 / qpstep=4 / ip_ratio=1.40 / aq=1:1.00 Language : English Default : Yes Forced : No Audio #1 ID : 2 Format : E-AC-3 Format/Info : Enhanced AC-3 Commercial name : Dolby Digital Plus Format profile : Blu-ray Disc Codec ID : A_EAC3 Duration : 1 h 49 min Bit rate mode : Constant Bit rate : 768 kb/s Channel(s) : 8 channels Channel layout : L R C LFE Ls Rs Lb Rb Sampling rate : 48.0 kHz Frame rate : 31.250 FPS (1536 SPF) Compression mode : Lossy Stream size : 602 MiB (5%) Title : Latino Language : Spanish Service kind : Complete Main Default : Yes Forced : No Audio #2 ID : 3 Format : MLP FBA Format/Info : Meridian Lossless Packing FBA Commercial name : Dolby TrueHD Codec ID : A_TRUEHD Duration : 1 h 49 min Bit rate mode : Variable Bit rate : 3 944 kb/s Maximum bit rate : 6 240 kb/s Channel(s) : 8 channels Channel layout : L R C LFE Ls Rs Lb Rb Sampling rate : 48.0 kHz Frame rate : 1 200.000 FPS (40 SPF) Compression mode : Lossless Stream size : 3.02 GiB (25%) Title : Ingles Language : English Default : No Forced : No Audio #3 ID : 4 Format : AC-3 Format/Info : Audio Coding 3 Commercial name : Dolby Digital Codec ID : A_AC3 Duration : 1 h 49 min Bit rate mode : Constant Bit rate : 448 kb/s Channel(s) : 6 channels Channel layout : L R C LFE Ls Rs Sampling rate : 48.0 kHz Frame rate : 31.250 FPS (1536 SPF) Compression mode : Lossy Stream size : 351 MiB (3%) Title : Ingles Language : English Service kind : Complete Main Default : No Forced : No Text #1 ID : 5 Format : UTF-8 Codec ID : S_TEXT/UTF8 Codec ID/Info : UTF-8 Plain Text Duration : 1 h 43 min Bit rate : 44 b/s Frame rate : 0.202 FPS Count of elements : 1249 Stream size : 33.4 KiB (0%) Title : Latino Language : Spanish Default : No Forced : No Text #2 ID : 6 Format : UTF-8 Codec ID : S_TEXT/UTF8 Codec ID/Info : UTF-8 Plain Text Duration : 4 min 4 s Bit rate : 1 b/s Frame rate : 0.008 FPS Count of elements : 2 Stream size : 48.0 Bytes (0%) Title : Forzados Language : Spanish Default : Yes Forced : No Text #3 ID : 7 Format : PGS Muxing mode : zlib Codec ID : S_HDMV/PGS Codec ID/Info : Picture based subtitle format used on BDs/HD-DVDs Duration : 1 h 46 min Bit rate : 29.6 kb/s Frame rate : 0.389 FPS Count of elements : 2496 Stream size : 22.6 MiB (0%) Title : Latino Language : Spanish Default : No Forced : No Text #4 ID : 8 Format : PGS Muxing mode : zlib Codec ID : S_HDMV/PGS Codec ID/Info : Picture based subtitle format used on BDs/HD-DVDs Duration : 4 min 4 s Bit rate : 1 398 b/s Frame rate : 0.016 FPS Count of elements : 4 Stream size : 41.8 KiB (0%) Title : Forzados Language : Spanish Default : No Forced : No Text #5 ID : 9 Format : PGS Muxing mode : zlib Codec ID : S_HDMV/PGS Codec ID/Info : Picture based subtitle format used on BDs/HD-DVDs Duration : 1 h 49 min Bit rate : 38.6 kb/s Frame rate : 0.471 FPS Count of elements : 3088 Stream size : 30.2 MiB (0%) Title : Ingles Language : English Default : No Forced : No CAPTURAS DESCARGA Todos los links son Intercambiables! Hidden content Hidden content CONTRASEÑA www.club-hd.com
Sinopsis Ambientada en los años 60, sigue el ascenso de un club de motociclistas del medio oeste, los Vandals. El club pasa, en el transcurso de una década, de ser un lugar de reunión para forasteros locales a convertirse en una banda más siniestra, que amenaza el modo de vida único del grupo original. MEDIAINFO General Unique ID : 338405258440966780356964550157547900924 (0xFE967B6815AC8A5D5EA8CF5BE1408FFC) Format : Matroska Format version : Version 4 File size : 7.70 GiB Duration : 1 h 56 min Overall bit rate : 9 468 kb/s Frame rate : 23.976 FPS Encoded date : 2024-07-09 23:06:26 UTC Writing application : mkvmerge v49.0.0 ('Sick Of Losing Soulmates') 64-bit Writing library : libebml v1.4.0 + libmatroska v1.6.1 Uploader : Brady Web : www.club-hd.com Video ID : 1 Format : AVC Format/Info : Advanced Video Codec Format profile : High@L4 Format settings : CABAC / 4 Ref Frames Format settings, CABAC : Yes Format settings, Reference frames : 4 frames Codec ID : V_MPEG4/ISO/AVC Duration : 1 h 56 min Bit rate mode : Constant Bit rate : 8 315 kb/s Nominal bit rate : 10 000 kb/s Width : 1 920 pixels Height : 800 pixels Display aspect ratio : 2.40:1 Frame rate mode : Constant Frame rate : 23.976 (24000/1001) FPS Color space : YUV Chroma subsampling : 4:2:0 Bit depth : 8 bits Scan type : Progressive Bits/(Pixel*Frame) : 0.226 Stream size : 6.76 GiB (88%) Language : English Default : Yes Forced : No Color range : Limited Color primaries : BT.709 Transfer characteristics : BT.709 Matrix coefficients : BT.709 Audio #1 ID : 2 Format : AC-3 Format/Info : Audio Coding 3 Commercial name : Dolby Digital Codec ID : A_AC3 Duration : 1 h 56 min Bit rate mode : Constant Bit rate : 384 kb/s Channel(s) : 6 channels Channel layout : L R C LFE Ls Rs Sampling rate : 48.0 kHz Frame rate : 31.250 FPS (1536 SPF) Compression mode : Lossy Stream size : 320 MiB (4%) Title : Latino Language : Spanish Service kind : Complete Main Default : Yes Forced : No Audio #2 ID : 3 Format : E-AC-3 JOC Format/Info : Enhanced AC-3 with Joint Object Coding Commercial name : Dolby Digital Plus with Dolby Atmos Codec ID : A_EAC3 Duration : 1 h 56 min Bit rate mode : Constant Bit rate : 768 kb/s Channel(s) : 6 channels Channel layout : L R C LFE Ls Rs Sampling rate : 48.0 kHz Frame rate : 31.250 FPS (1536 SPF) Compression mode : Lossy Delay relative to video : 16 ms Stream size : 639 MiB (8%) Title : Ingles Language : English Service kind : Complete Main Default : No Forced : No Complexity index : 16 Number of dynamic objects : 15 Bed channel count : 1 channel Bed channel configuration : LFE Text #1 ID : 4 Format : UTF-8 Codec ID : S_TEXT/UTF8 Codec ID/Info : UTF-8 Plain Text Duration : 1 h 49 min Bit rate : 50 b/s Frame rate : 0.228 FPS Count of elements : 1503 Stream size : 40.5 KiB (0%) Title : Latino Language : Spanish Default : No Forced : No Text #2 ID : 5 Format : UTF-8 Codec ID : S_TEXT/UTF8 Codec ID/Info : UTF-8 Plain Text Duration : 1 h 47 min Bit rate : 0 b/s Frame rate : 0.002 FPS Count of elements : 14 Stream size : 400 Bytes (0%) Title : Forzados Language : Spanish Default : Yes Forced : No Text #3 ID : 6 Format : UTF-8 Codec ID : S_TEXT/UTF8 Codec ID/Info : UTF-8 Plain Text Duration : 1 h 54 min Bit rate : 66 b/s Frame rate : 0.275 FPS Count of elements : 1894 Stream size : 56.3 KiB (0%) Title : Ingles Language : English Default : No Forced : No CAPTURAS DESCARGA Todos los links son Intercambiables! Hidden content Hidden content CONTRASEÑA www.club-hd.com
Sinopsis El mundialmente famoso Garfield, el gato casero que odia los lunes y que adora la lasaña, está a punto de vivir una aventura ¡en el salvaje mundo exterior! Tras una inesperada reunión con su perdido padre –el desaliñado gato callejero Vic–, Garfield y su amigo canino Odie se ven forzados a abandonar sus perfectas y consentidas vidas al unirse a Vic en un muy arriesgado atraco. MEDIAINFO General Unique ID : 82898504567701590595566442508492951114 (0x3E5DABD5AD095D4796B56904AF934E4A) Format : Matroska Format version : Version 4 File size : 6.49 GiB Duration : 1 h 43 min Overall bit rate : 9 001 kb/s Frame rate : 23.976 FPS Encoded date : 2024-07-09 00:29:14 UTC Writing application : mkvmerge v49.0.0 ('Sick Of Losing Soulmates') 64-bit Writing library : libebml v1.4.0 + libmatroska v1.6.1 Uploader : Brady Web : www.club-hd.com Video ID : 1 Format : AVC Format/Info : Advanced Video Codec Format profile : High@L4 Format settings : CABAC / 4 Ref Frames Format settings, CABAC : Yes Format settings, Reference frames : 4 frames Codec ID : V_MPEG4/ISO/AVC Duration : 1 h 43 min Bit rate mode : Constant Bit rate : 7 719 kb/s Nominal bit rate : 10 000 kb/s Width : 1 920 pixels Height : 1 040 pixels Display aspect ratio : 1.85:1 Frame rate mode : Constant Frame rate : 23.976 (24000/1001) FPS Color space : YUV Chroma subsampling : 4:2:0 Bit depth : 8 bits Scan type : Progressive Bits/(Pixel*Frame) : 0.161 Stream size : 5.56 GiB (86%) Language : English Default : Yes Forced : No Color range : Limited Color primaries : BT.709 Transfer characteristics : BT.709 Matrix coefficients : BT.709 Audio #1 ID : 2 Format : E-AC-3 Format/Info : Enhanced AC-3 Commercial name : Dolby Digital Plus Codec ID : A_EAC3 Duration : 1 h 43 min Bit rate mode : Constant Bit rate : 640 kb/s Channel(s) : 6 channels Channel layout : L R C LFE Ls Rs Sampling rate : 48.0 kHz Frame rate : 31.250 FPS (1536 SPF) Compression mode : Lossy Stream size : 472 MiB (7%) Title : Latino Language : Spanish Service kind : Complete Main Default : Yes Forced : No Audio #2 ID : 3 Format : E-AC-3 Format/Info : Enhanced AC-3 Commercial name : Dolby Digital Plus Codec ID : A_EAC3 Duration : 1 h 43 min Bit rate mode : Constant Bit rate : 640 kb/s Channel(s) : 6 channels Channel layout : L R C LFE Ls Rs Sampling rate : 48.0 kHz Frame rate : 31.250 FPS (1536 SPF) Compression mode : Lossy Stream size : 472 MiB (7%) Title : Ingles Language : English Service kind : Complete Main Default : No Forced : No Text #1 ID : 4 Format : UTF-8 Codec ID : S_TEXT/UTF8 Codec ID/Info : UTF-8 Plain Text Duration : 1 h 39 min Bit rate : 59 b/s Frame rate : 0.239 FPS Count of elements : 1422 Stream size : 42.9 KiB (0%) Title : Latino Language : Spanish Default : No Forced : No Text #2 ID : 5 Format : UTF-8 Codec ID : S_TEXT/UTF8 Codec ID/Info : UTF-8 Plain Text Duration : 1 h 39 min Bit rate : 1 b/s Frame rate : 0.007 FPS Count of elements : 40 Stream size : 807 Bytes (0%) Title : Forzados Language : Spanish Default : Yes Forced : No Text #3 ID : 6 Format : UTF-8 Codec ID : S_TEXT/UTF8 Codec ID/Info : UTF-8 Plain Text Duration : 1 h 39 min Bit rate : 72 b/s Frame rate : 0.309 FPS Count of elements : 1841 Stream size : 53.0 KiB (0%) Title : Ingles Language : English Default : No Forced : No CAPTURAS DESCARGA Todos los links son Intercambiables! Hidden content Hidden content CONTRASEÑA www.club-hd.com
Sinopsis El Money in the Bank 2024 es un próximo evento de lucha libre profesional producido por la empresa estadounidense WWE. Será el decimoquinto evento anual Money in the Bank y se llevará a cabo el sábado 6 de julio de 2024 en el Scotiabank Arena de Toronto, Ontario, Canadá. El evento se transmitirá a través de PPV y transmisión en vivo y se llevará a cabo para luchadores de las divisiones de marca Raw y SmackDown de la promoción. Este será el primer evento Money in the Bank que se celebrará en Canadá y el segundo que se llevará a cabo fuera de Estados Unidos, después del evento de 2023. El evento se basa en la lucha de escalera de Money in the Bank, una lucha de escalera de varias personas en la que los participantes compiten para obtener un contrato que otorga al ganador una lucha por un campeonato de su elección en cualquier momento durante el próximo año. MEDIAINFO General Unique ID : 73957574442416348223053072257191288705 (0x37A3B5F1F626195F993D7AE4EEEC9F81) Format : Matroska Format version : Version 4 File size : 11.0 GiB Duration : 3 h 16 min Overall bit rate : 8 014 kb/s Frame rate : 30.000 FPS Encoded date : 2024-07-07 20:17:23 UTC Writing application : mkvmerge v49.0.0 ('Sick Of Losing Soulmates') 64-bit Writing library : libebml v1.4.0 + libmatroska v1.6.1 Uploader : Brady Web : www.club-hd.com Video ID : 1 Format : AVC Format/Info : Advanced Video Codec Format profile : [email protected] Format settings : CABAC / 4 Ref Frames Format settings, CABAC : Yes Format settings, Reference frames : 4 frames Codec ID : V_MPEG4/ISO/AVC Duration : 3 h 16 min Bit rate : 7 808 kb/s Width : 1 920 pixels Height : 1 080 pixels Display aspect ratio : 16:9 Frame rate mode : Constant Frame rate : 30.000 FPS Color space : YUV Chroma subsampling : 4:2:0 Bit depth : 8 bits Scan type : Progressive Bits/(Pixel*Frame) : 0.126 Stream size : 10.6 GiB (97%) Writing library : x264 core 164 r3153 5f84d40 Encoding settings : cabac=1 / ref=2 / deblock=1:0:0 / analyse=0x3:0x113 / me=hex / subme=6 / psy=1 / psy_rd=1.00:0.00 / mixed_ref=1 / me_range=16 / chroma_me=1 / trellis=1 / 8x8dct=1 / cqm=0 / deadzone=21,11 / fast_pskip=1 / chroma_qp_offset=-2 / threads=24 / lookahead_threads=4 / sliced_threads=0 / nr=0 / decimate=1 / interlaced=0 / bluray_compat=0 / constrained_intra=0 / bframes=2 / b_pyramid=2 / b_adapt=1 / b_bias=0 / direct=1 / weightb=1 / open_gop=0 / weightp=1 / keyint=60 / keyint_min=31 / scenecut=0 / intra_refresh=0 / rc_lookahead=30 / rc=2pass / mbtree=1 / bitrate=7808 / ratetol=1.0 / qcomp=0.60 / qpmin=0 / qpmax=69 / qpstep=4 / cplxblur=20.0 / qblur=0.5 / vbv_maxrate=7808 / vbv_bufsize=15616 / nal_hrd=none / filler=0 / ip_ratio=1.40 / aq=1:1.00 Language : English Default : Yes Forced : No Audio #1 ID : 2 Format : AAC LC Format/Info : Advanced Audio Codec Low Complexity Codec ID : A_AAC-2 Duration : 3 h 16 min Bit rate : 129 kb/s Channel(s) : 2 channels Channel layout : L R Sampling rate : 48.0 kHz Frame rate : 46.875 FPS (1024 SPF) Compression mode : Lossy Stream size : 181 MiB (2%) Title : Latino Language : Spanish Default : Yes Forced : No Audio #2 ID : 3 Format : AAC LC Format/Info : Advanced Audio Codec Low Complexity Codec ID : A_AAC-2 Duration : 3 h 16 min Bit rate : 128 kb/s Channel(s) : 2 channels Channel layout : L R Sampling rate : 48.0 kHz Frame rate : 46.875 FPS (1024 SPF) Compression mode : Lossy Stream size : 180 MiB (2%) Title : Ingles Language : English Default : No Forced : No CAPTURAS DESCARGA Todos los links son Intercambiables! Hidden content Hidden content CONTRASEÑA www.club-hd.com
Sinopsis Kid es un delincuente que acaba de salir de prisión y vive en la India, intentando adaptarse a un mundo marcado por la avaricia y carente de valores espirituales. Allí luchará por buscar venganza por la muerte de su madre y defender a las clases más desfavorecidas. MEDIAINFO General Unique ID : 198814650170167011142900181776119718035 (0x95924F0E7892A7F85B5B521E583D6093) Format : Matroska Format version : Version 4 File size : 26.1 GiB Duration : 2 h 1 min Overall bit rate mode : Variable Overall bit rate : 30.8 Mb/s Frame rate : 23.976 FPS Encoded date : 2024-07-06 20:29:18 UTC Writing application : mkvmerge v49.0.0 ('Sick Of Losing Soulmates') 64-bit Writing library : libebml v1.4.0 + libmatroska v1.6.1 Uploader : Brady Web : www.club-hd.com Video ID : 1 Format : HEVC Format/Info : High Efficiency Video Coding Format profile : Main [email protected]@High HDR format : SMPTE ST 2086, HDR10 compatible Codec ID : V_MPEGH/ISO/HEVC Duration : 2 h 1 min Bit rate : 26.8 Mb/s Width : 3 840 pixels Height : 1 608 pixels Display aspect ratio : 2.39:1 Frame rate mode : Constant Frame rate : 23.976 (24000/1001) FPS Color space : YUV Chroma subsampling : 4:2:0 (Type 2) Bit depth : 10 bits Bits/(Pixel*Frame) : 0.181 Stream size : 22.8 GiB (87%) Writing library : x265 3.6+27-8787e8702:[Windows][GCC 13.3.0][64 bit] 10bit Encoding settings : cpuid=1176575 / frame-threads=5 / numa-pools=32 / wpp / no-pmode / no-pme / no-psnr / no-ssim / log-level=2 / input-csp=1 / input-res=3840x1608 / interlace=0 / total-frames=174936 / level-idc=51 / high-tier=1 / uhd-bd=0 / ref=4 / no-allow-non-conformance / repeat-headers / annexb / aud / no-eob / no-eos / hrd / info / hash=0 / temporal-layers=0 / no-open-gop / min-keyint=23 / keyint=250 / gop-lookahead=0 / bframes=4 / b-adapt=2 / b-pyramid / bframe-bias=0 / rc-lookahead=25 / lookahead-slices=4 / scenecut=40 / no-hist-scenecut / radl=0 / no-splice / no-intra-refresh / ctu=64 / min-cu-size=8 / rect / no-amp / max-tu-size=32 / tu-inter-depth=1 / tu-intra-depth=1 / limit-tu=0 / rdoq-level=2 / dynamic-rd=0.00 / no-ssim-rd / signhide / no-tskip / nr-intra=0 / nr-inter=0 / no-constrained-intra / strong-intra-smoothing / max-merge=3 / limit-refs=3 / limit-modes / me=3 / subme=3 / merange=57 / temporal-mvp / no-frame-dup / no-hme / weightp / no-weightb / no-analyze-src-pics / deblock=-3:-3 / no-sao / no-sao-non-deblock / rd=4 / selective-sao=0 / no-early-skip / rskip / no-fast-intra / no-tskip-fast / no-cu-lossless / no-b-intra / no-splitrd-skip / rdpenalty=0 / psy-rd=2.00 / psy-rdoq=1.00 / no-rd-refine / no-lossless / cbqpoffs=0 / crqpoffs=0 / rc=crf / crf=12.0 / qcomp=0.60 / qpstep=4 / stats-write=0 / stats-read=0 / vbv-maxrate=160000 / vbv-bufsize=160000 / vbv-init=0.9 / min-vbv-fullness=50.0 / max-vbv-fullness=80.0 / crf-max=0.0 / crf-min=0.0 / ipratio=1.40 / pbratio=1.30 / aq-mode=2 / aq-strength=1.00 / cutree / zone-count=0 / no-strict-cbr / qg-size=32 / no-rc-grain / qpmax=69 / qpmin=0 / no-const-vbv / sar=1 / overscan=0 / videoformat=5 / range=0 / colorprim=9 / transfer=16 / colormatrix=9 / chromaloc=1 / chromaloc-top=2 / chromaloc-bottom=2 / display-window=0 / master-display=G(13250,34500)B(7500,3000)R(34000,16000)WP(15635,16450)L(10000000,10) / cll=736,117 / min-luma=0 / max-luma=1023 / log2-max-poc-lsb=8 / vui-timing-info / vui-hrd-info / slices=1 / no-opt-qp-pps / no-opt-ref-list-length-pps / no-multi-pass-opt-rps / scenecut-bias=0.05 / no-opt-cu-delta-qp / no-aq-motion / hdr10 / hdr10-opt / no-dhdr10-opt / no-idr-recovery-sei / analysis-reuse-level=0 / analysis-save-reuse-level=0 / analysis-load-reuse-level=0 / scale-factor=0 / refine-intra=0 / refine-inter=0 / refine-mv=1 / refine-ctu-distortion=0 / no-limit-sao / ctu-info=0 / no-lowpass-dct / refine-analysis-type=0 / copy-pic=1 / max-ausize-factor=1.0 / no-dynamic-refine / no-single-sei / no-hevc-aq / no-svt / no-field / qp-adaptation-range=1.00 / scenecut-aware-qp=0conformance-window-offsets / right=0 / bottom=0 / decoder-max-rate=0 / no-vbv-live-multi-pass / no-mcstf / no-sbrc Language : English Default : Yes Forced : No Color range : Limited Color primaries : BT.2020 Transfer characteristics : PQ Matrix coefficients : BT.2020 non-constant Mastering display color primaries : Display P3 Mastering display luminance : min: 0.0010 cd/m2, max: 1000 cd/m2 Maximum Content Light Level : 736 cd/m2 Maximum Frame-Average Light Level : 117 cd/m2 Audio #1 ID : 2 Format : E-AC-3 Format/Info : Enhanced AC-3 Commercial name : Dolby Digital Plus Codec ID : A_EAC3 Duration : 2 h 1 min Bit rate mode : Constant Bit rate : 640 kb/s Channel(s) : 6 channels Channel layout : L R C LFE Ls Rs Sampling rate : 48.0 kHz Frame rate : 31.250 FPS (1536 SPF) Compression mode : Lossy Stream size : 557 MiB (2%) Title : Latino Language : Spanish Service kind : Complete Main Default : Yes Forced : No Audio #2 ID : 3 Format : MLP FBA 16-ch Format/Info : Meridian Lossless Packing FBA with 16-channel presentation Commercial name : Dolby TrueHD with Dolby Atmos Codec ID : A_TRUEHD Duration : 2 h 1 min Bit rate mode : Variable Bit rate : 2 761 kb/s Maximum bit rate : 4 044 kb/s Channel(s) : 8 channels Channel layout : L R C LFE Ls Rs Lb Rb Sampling rate : 48.0 kHz Frame rate : 1 200.000 FPS (40 SPF) Compression mode : Lossless Stream size : 2.35 GiB (9%) Title : Ingles Language : English Default : No Forced : No Number of dynamic objects : 11 Bed channel count : 1 channel Bed channel configuration : LFE Audio #3 ID : 4 Format : AC-3 Format/Info : Audio Coding 3 Commercial name : Dolby Digital Codec ID : A_AC3 Duration : 2 h 1 min Bit rate mode : Constant Bit rate : 448 kb/s Channel(s) : 6 channels Channel layout : L R C LFE Ls Rs Sampling rate : 48.0 kHz Frame rate : 31.250 FPS (1536 SPF) Compression mode : Lossy Stream size : 390 MiB (1%) Title : Ingles Language : English Service kind : Complete Main Default : No Forced : No Text #1 ID : 5 Format : UTF-8 Codec ID : S_TEXT/UTF8 Codec ID/Info : UTF-8 Plain Text Duration : 1 h 52 min Bit rate : 30 b/s Frame rate : 0.124 FPS Count of elements : 838 Stream size : 25.0 KiB (0%) Title : Latino Language : Spanish Default : No Forced : No Text #2 ID : 6 Format : UTF-8 Codec ID : S_TEXT/UTF8 Codec ID/Info : UTF-8 Plain Text Duration : 1 h 29 min Bit rate : 0 b/s Frame rate : 0.001 FPS Count of elements : 7 Stream size : 185 Bytes (0%) Title : Forzados Language : Spanish Default : Yes Forced : No Text #3 ID : 7 Format : PGS Muxing mode : zlib Codec ID : S_HDMV/PGS Codec ID/Info : Picture based subtitle format used on BDs/HD-DVDs Duration : 1 h 57 min Bit rate : 33.2 kb/s Frame rate : 0.439 FPS Count of elements : 3096 Stream size : 28.0 MiB (0%) Title : Ingles Language : English Default : No Forced : No CAPTURAS DESCARGA Todos los links son Intercambiables! Hidden content Hidden content CONTRASEÑA www.club-hd.com
Ficha Tecnica Título Original: The Garfield Movie Año: 2024 Duración: 101 min País: Estados Unidos Director: Mark Dindal Guion: Paul A. Kaplan, David Reynolds, Mark Torgove. Cómic: Jim Davis Reparto: Chris Pratt, Samuel L. Jackson, Nicholas Hoult, Ving Rhames, Bowen Yang, Cecily Strong, Hannah Waddingham, Brett Goldstein Fotografía: Animación Compañías: Alcon Entertainment, Double Negative, Sony Pictures Animation, Paws, Prime Focus. Distribuidora: Sony Pictures Género: Animación. Comedia. Gatos. Robos & Atracos. Cómic Sinopsis El mundialmente famoso Garfield, el gato casero que odia los lunes y que adora la lasaña, está a punto de vivir una aventura ¡en el salvaje mundo exterior! Tras una inesperada reunión con su perdido padre –el desaliñado gato callejero Vic–, Garfield y su amigo canino Odie se ven forzados a abandonar sus perfectas y consentidas vidas al unirse a Vic en un muy arriesgado atraco. MEDIAINFO Formato : Matroska Formato de la versión : Version 4 Tamaño de archivo : 17,9 GiB Duración : 1 h 43 min Tasa de bits general : 24,8 Mb/s Velocidad de fotogramas : 23,976 FPS Fecha de codificación : 2024-07-08 23:16:04 UTC Aplicación de codifición : mkvmerge v82.0 ('I'm The President') 64-bit Librería de codificación : libebml v1.4.5 + libmatroska v1.7.1 Vídeo ID : 1 Formato : HEVC Formato/Info : High Efficiency Video Coding Formato del perfil : Main 10@L5@High HDR format : Dolby Vision, Version 1.0, Profile 8.1, dvhe.08.06, BL+RPU, no metadata compression, HDR10 compatible / SMPTE ST 2094 App 4, Version HDR10+ Profile B, HDR10+ Profile B compatible ID códec : V_MPEGH/ISO/HEVC Duración : 1 h 40 min Tasa de bits : 24,0 Mb/s Ancho : 3 840 píxeles Alto : 2 072 píxeles Relación de aspecto : 1,85:1 Modo velocidad fotogramas : Constante Velocidad de fotogramas : 23,976 FPS Espacio de color : YUV Submuestreo croma : 4:2:0 (Type 2) Profundidad bits : 10 bits Bits/(píxel*fotograma) : 0.126 Tamaño de pista : 17,0 GiB (95%) Default : Sí Forced : No Rango de color : Limited Colores primarios : BT.2020 Características transferencia : PQ Coeficientes matriz : BT.2020 non-constant Principios color monitor masterización : BT.2020 Luminancia monitor masterización : min: 0.0050 cd/m2, max: 4000 cd/m2 Nivel ligero contenido máximo : 1042 cd/m2 Nivel ligero fotograma medio máximo : 441 cd/m2 Audio #1 ID : 2 Formato : E-AC-3 Formato/Info : Enhanced AC-3 Nombre comercial : Dolby Digital Plus ID códec : A_EAC3 Duración : 1 h 43 min Tipo de tasa de bits : Constante Tasa de bits : 640 kb/s Canal(es) : 6 canales Channel layout : L R C LFE Ls Rs Velocidad de muestreo : 48,0 kHz Velocidad de fotogramas : 31,250 FPS (1536 SPF) Profundidad bits : 32 bits Modo de compresión : Con pérdida Tamaño de pista : 472 MiB (3%) Título : Spanish Idioma : Español (LA) Service kind : Complete Main Default : No Forced : No Dialog Normalization : -31 dB compr : -0.28 dB dialnorm_Average : -31 dB dialnorm_Minimum : -31 dB dialnorm_Maximum : -31 dB Audio #2 ID : 3 Formato : E-AC-3 Formato/Info : Enhanced AC-3 Nombre comercial : Dolby Digital Plus ID códec : A_EAC3 Duración : 1 h 43 min Tipo de tasa de bits : Constante Tasa de bits : 640 kb/s Canal(es) : 6 canales Channel layout : L R C LFE Ls Rs Velocidad de muestreo : 48,0 kHz Velocidad de fotogramas : 31,250 FPS (1536 SPF) Profundidad bits : 32 bits Modo de compresión : Con pérdida Tamaño de pista : 472 MiB (3%) Título : English Idioma : Inglés Service kind : Complete Main Default : No Forced : No Dialog Normalization : -31 dB compr : -0.28 dB dialnorm_Average : -31 dB dialnorm_Minimum : -31 dB dialnorm_Maximum : -31 dB Texto #1 ID : 4 Formato : UTF-8 ID códec : S_TEXT/UTF8 ID códec/Info : UTF-8 Plain Text Duración : 1 h 39 min Tasa de bits : 1 b/s Velocidad de fotogramas : 0,007 FPS Count of elements : 40 Tamaño de pista : 807 Bytes (0%) Título : Spanish (Forced) Idioma : Español (LA) Default : Sí Forced : Sí Texto #2 ID : 5 Formato : UTF-8 ID códec : S_TEXT/UTF8 ID códec/Info : UTF-8 Plain Text Duración : 1 h 39 min Tasa de bits : 57 b/s Velocidad de fotogramas : 0,240 FPS Count of elements : 1428 Tamaño de pista : 41,7 KiB (0%) Título : Spanish Idioma : Español (LA) Default : No Forced : No Menú 00:00:00.000 : en:Chapter 01 00:04:59.424 : en:Chapter 02 00:12:21.157 : en:Chapter 03 00:17:37.223 : en:Chapter 04 00:23:54.517 : en:Chapter 05 00:27:57.093 : en:Chapter 06 00:36:30.357 : en:Chapter 07 00:42:51.446 : en:Chapter 08 00:49:45.485 : en:Chapter 09 00:53:52.857 : en:Chapter 10 00:59:21.478 : en:Chapter 11 01:06:42.669 : en:Chapter 12 01:11:20.697 : en:Chapter 13 01:18:50.730 : en:Chapter 14 01:25:20.412 : en:Chapter 15 01:31:41.543 : en:Chapter 16 CAPTURAS ENLACES VIP 1 LINK VIP Hidden content ENLACES FREE Click aquí para descargar desde 1Cloudfile Click aquí para descargar desde Doodrive Click aquí para descargar desde Qiwi CONTRASEÑA www.club-hd.com
Sinopsis Ambientada varias generaciones en el futuro tras el reinado de César, en la que los simios son la especie dominante que vive en armonía y los humanos se han visto reducidos a vivir en la sombra. Mientras un nuevo y tiránico líder simio construye su imperio, un joven simio emprende un angustioso viaje que le llevará a cuestionarse todo lo que sabe sobre el pasado y a tomar decisiones que definirán el futuro de simios y humanos por igual. MEDIAINFO General Unique ID : 218916801256063290289768630382077614689 (0xA4B1D7A01C73D9CB82501CF59F731A61) Format : Matroska Format version : Version 4 File size : 8.65 GiB Duration : 2 h 24 min Overall bit rate : 8 564 kb/s Frame rate : 24.000 FPS Encoded date : 2024-07-08 19:48:42 UTC Writing application : mkvmerge v82.0 ('I'm The President') 64-bit Writing library : libebml v1.4.5 + libmatroska v1.7.1 Video ID : 1 Format : AVC Format/Info : Advanced Video Codec Format profile : High@L4 Format settings : CABAC / 5 Ref Frames Format settings, CABAC : Yes Format settings, Reference frames : 5 frames Format settings, Slice count : 8 slices per frame Codec ID : V_MPEG4/ISO/AVC Duration : 2 h 24 min Bit rate : 6 513 kb/s Width : 1 918 pixels Height : 802 pixels Display aspect ratio : 2.39:1 Frame rate mode : Constant Frame rate : 24.000 FPS Color space : YUV Chroma subsampling : 4:2:0 Bit depth : 8 bits Scan type : Progressive Bits/(Pixel*Frame) : 0.176 Stream size : 6.58 GiB (76%) Language : English Default : Yes Forced : No Color range : Limited Color primaries : BT.709 Transfer characteristics : BT.709 Matrix coefficients : BT.709 Audio #1 ID : 2 Format : E-AC-3 Format/Info : Enhanced AC-3 Commercial name : Dolby Digital Plus Format settings : Dolby Surround EX Codec ID : A_EAC3 Duration : 2 h 24 min Bit rate mode : Constant Bit rate : 640 kb/s Channel(s) : 8 channels Channel layout : L R C LFE Ls Rs Lb Rb Sampling rate : 48.0 kHz Frame rate : 31.250 FPS (1536 SPF) Compression mode : Lossy Stream size : 662 MiB (7%) Title : Latino E-AC3 7.1 Language : Spanish Service kind : Complete Main Default : Yes Forced : Yes Dialog Normalization : -27 dB compr : -0.28 dB dialnorm_Average : -27 dB dialnorm_Minimum : -27 dB dialnorm_Maximum : -27 dB Audio #2 ID : 3 Format : AC-3 Format/Info : Audio Coding 3 Commercial name : Dolby Digital Codec ID : A_AC3 Duration : 2 h 24 min Bit rate mode : Constant Bit rate : 640 kb/s Channel(s) : 6 channels Channel layout : L R C LFE Ls Rs Sampling rate : 48.0 kHz Frame rate : 31.250 FPS (1536 SPF) Compression mode : Lossy Stream size : 662 MiB (7%) Title : Latino AC3 5.1 Language : Spanish Service kind : Complete Main Default : Yes Forced : No Dialog Normalization : -31 dB cmixlev : -4.5 dB surmixlev : -6 dB dialnorm_Average : -31 dB dialnorm_Minimum : -31 dB dialnorm_Maximum : -31 dB Audio #3 ID : 4 Format : E-AC-3 JOC Format/Info : Enhanced AC-3 with Joint Object Coding Commercial name : Dolby Digital Plus with Dolby Atmos Codec ID : A_EAC3 Duration : 2 h 24 min Bit rate mode : Constant Bit rate : 768 kb/s Channel(s) : 6 channels Channel layout : L R C LFE Ls Rs Sampling rate : 48.0 kHz Frame rate : 31.250 FPS (1536 SPF) Compression mode : Lossy Stream size : 795 MiB (9%) Title : Inglés E-ACE 7.1 Language : English Service kind : Complete Main Default : No Forced : No Complexity index : 16 Number of dynamic objects : 15 Bed channel count : 1 channel Bed channel configuration : LFE Dialog Normalization : -20 dB compr : -0.28 dB dialnorm_Average : -20 dB dialnorm_Minimum : -20 dB dialnorm_Maximum : -20 dB Text #1 ID : 5 Format : UTF-8 Codec ID : S_TEXT/UTF8 Codec ID/Info : UTF-8 Plain Text Duration : 2 h 15 min Bit rate : 19 b/s Frame rate : 0.117 FPS Count of elements : 952 Stream size : 19.3 KiB (0%) Title : Español (Latinoamerica) Language : Spanish Default : No Forced : No Text #2 ID : 6 Format : UTF-8 Codec ID : S_TEXT/UTF8 Codec ID/Info : UTF-8 Plain Text Duration : 2 h 12 min Bit rate : 0 b/s Frame rate : 0.003 FPS Count of elements : 24 Stream size : 742 Bytes (0%) Title : Forzados Language : Spanish Default : No Forced : Yes Text #3 ID : 7 Format : UTF-8 Codec ID : S_TEXT/UTF8 Codec ID/Info : UTF-8 Plain Text Duration : 2 h 11 min Bit rate : 17 b/s Frame rate : 0.118 FPS Count of elements : 932 Stream size : 17.1 KiB (0%) Title : English Language : English Default : No Forced : No CAPTURAS ENLACES VIP Hidden content ENLACES FREE Hidden content Hidden content Hidden content CONTRASEÑA www.club-hd.com
Boston, años 60. Eileen es una chica atrapada entre un hogar lúgubre con un padre alcohólico y su empleo en una prisión, donde sus compañeros la han condenado al ostracismo. Cuando una guapa y magnética mujer se une al personal de la prisión, Eileen es incapaz de resistirse a esa milagrosa e incipiente amistad. Pero esa amistad la involucrará en un crimen que alterará todo. 6.0 ⭐ 1 LINK MKV VIP ⭐ Hidden content LINKS FREE PÚBLICOS ¡Click aquí para descargar desde 1cloudfile! "Solo Audio Latino"

Anuncios y Noticias sobre Club HD!

Anuncios Del Club

Todas las noticias y comunicados de Club HD están aquí.
Temas
58
Mensajes
9,9K
Temas
58
Mensajes
9,9K

Audios Latinos

Audios Latinos para Películas y Series

Audios Latinos para Películas y Series

Descarga y comparte en esta sección tus audios latinos en formato AC3, E-AC3, AAC, DTS, DTS-HD, PCM, LPCM, Dolby TrueHD, y más
Temas
9,4K
Mensajes
186,2K
Temas
9,4K
Mensajes
186,2K
Pedidos de Audios Latinos

Pedidos de Audios Latinos

Temas
385
Mensajes
1,1K
Temas
385
Mensajes
1,1K
  • elmacaco3000

General

Foro Libre!

Diviértete en esta Zona creando tus propios Posts/Temas, hablando de lo que quieras usando Videos de Youtube, Imágenes o lo que se te ocurra!
Temas
323
Mensajes
3,8K
Temas
323
Mensajes
3,8K

Tutoriales

¿Tienes un tutorial útil para la comunidad? Entonces te invitamos a que lo postees aquí!
Temas
72
Mensajes
1,5K
Temas
72
Mensajes
1,5K

Zona de preguntas y respuestas

Zona en la que puedes dejar tus preguntas, dudas, curiosidades, etc... para luego ser respondidas por los miembros o el Staff del Club.
Temas
185
Mensajes
1,2K
Temas
185
Mensajes
1,2K
  • Luis_Medina35
Volver