<a href="https://club-hd.com/search-forums/ultimas-1000-publicaciones.118/">Últimas publicaciones (Click para ver más)</a>

Serie de TV (2020-Actualidad). 8 episodios. Cuenta la historia de un joven hombre que, repudiado por su propio pueblo, descubre que es el hijo ilegítimo de Zeus. Él, por sus propios medios, puede salvar tanto al cielo como a la Tierra, pero para ello debe sobrevivir a la terrible ira de una diosa que le quiere muerto y a las monstruosas fuerzas malignas con las que ella se alía. 7.5 ⭐ 1 LINK MKV VIP ⭐ Hidden content LINKS FREE PÚBLICOS ¡Click aquí para descargar desde Fireload! ¡Click aquí para descargar desde 1cloudfile! "Solo Audio Latino"
Sinopsis Ruby Bell (Harriet Herbig-Matten), una estudiante becada, se convierte en testigo de un secreto explosivo en la escuela privada de Maxton Hall. Este inconveniente hará que James Beaufort (Damian Hardung), un heredero millonario tremendamente arrogante, se vea obligado a lidiar con ella. Y es que para bien o para mal, James está decidido a silenciarla, pero su enfrentamiento enciende una chispa inesperada entre ambos. Un agradecimiento especial para nuestro Amigo, Uploader & Moderador Sider por los WEB-DL AMZN MEDIAINFO General Unique ID : 164637309155127980739514628308827886205 (0x7BDBFE0BBB74F44EAE6ADE716C37D27D) Format : Matroska Format version : Version 4 File size : 2.37 GiB Duration : 47 min 11 s Overall bit rate : 7 194 kb/s Frame rate : 24.000 FPS Encoded date : 2024-05-09 23:14:37 UTC Writing application : mkvmerge v49.0.0 ('Sick Of Losing Soulmates') 64-bit Writing library : libebml v1.4.0 + libmatroska v1.6.1 Uploader : Brady Web : www.club-hd.com Video ID : 1 Format : AVC Format/Info : Advanced Video Codec Format profile : High@L4 Format settings : CABAC / 4 Ref Frames Format settings, CABAC : Yes Format settings, Reference frames : 4 frames Codec ID : V_MPEG4/ISO/AVC Duration : 47 min 11 s Bit rate mode : Constant Bit rate : 5 912 kb/s Nominal bit rate : 10 000 kb/s Width : 1 920 pixels Height : 816 pixels Display aspect ratio : 2.35:1 Frame rate mode : Constant Frame rate : 24.000 FPS Color space : YUV Chroma subsampling : 4:2:0 Bit depth : 8 bits Scan type : Progressive Bits/(Pixel*Frame) : 0.157 Stream size : 1.95 GiB (82%) Language : German Default : Yes Forced : No Color range : Limited Color primaries : BT.709 Transfer characteristics : BT.709 Matrix coefficients : BT.709 Audio #1 ID : 2 Format : E-AC-3 Format/Info : Enhanced AC-3 Commercial name : Dolby Digital Plus Codec ID : A_EAC3 Duration : 47 min 11 s Bit rate mode : Constant Bit rate : 640 kb/s Channel(s) : 6 channels Channel layout : L R C LFE Ls Rs Sampling rate : 48.0 kHz Frame rate : 31.250 FPS (1536 SPF) Compression mode : Lossy Stream size : 216 MiB (9%) Title : Latino Language : Spanish Service kind : Complete Main Default : Yes Forced : No Audio #2 ID : 3 Format : E-AC-3 Format/Info : Enhanced AC-3 Commercial name : Dolby Digital Plus Codec ID : A_EAC3 Duration : 47 min 11 s Bit rate mode : Constant Bit rate : 640 kb/s Channel(s) : 6 channels Channel layout : L R C LFE Ls Rs Sampling rate : 48.0 kHz Frame rate : 31.250 FPS (1536 SPF) Compression mode : Lossy Stream size : 216 MiB (9%) Title : Aleman Language : German Service kind : Complete Main Default : No Forced : No Text #1 ID : 4 Format : UTF-8 Codec ID : S_TEXT/UTF8 Codec ID/Info : UTF-8 Plain Text Duration : 44 min 28 s Bit rate : 44 b/s Frame rate : 0.172 FPS Count of elements : 459 Stream size : 14.6 KiB (0%) Title : Latino Language : Spanish Default : No Forced : No Text #2 ID : 5 Format : UTF-8 Codec ID : S_TEXT/UTF8 Codec ID/Info : UTF-8 Plain Text Duration : 31 min 11 s Bit rate : 1 b/s Frame rate : 0.008 FPS Count of elements : 15 Stream size : 438 Bytes (0%) Title : Forzados Language : Spanish Default : Yes Forced : No CAPTURAS DESCARGA Todos los links son Intercambiables! Hidden content Click aquí para descargar desde 1Cloudfile CONTRASEÑA www.club-hd.com
Sinopsis Tras los sucesos de la primera parte acontecidos en el planeta Arrakis, el joven Paul Atreides se une a la tribu de los Fremen y comienza un viaje espiritual y marcial para convertirse en mesías, mientras intenta evitar el horrible pero inevitable futuro que ha presenciado: una Guerra Santa en su nombre, que se extiende por todo el universo conocido... Secuela de 'Dune' (2021). MEDIAINFO General Unique ID : 250567808951818594673466018494665980848 (0xBC819AC96C73510207AD3A71F877FBB0) Format : Matroska Format version : Version 4 File size : 18.8 GiB Duration : 2 h 45 min Overall bit rate mode : Variable Overall bit rate : 16.2 Mb/s Frame rate : 23.976 FPS Encoded date : 2024-05-09 19:55:09 UTC Writing application : mkvmerge v49.0.0 ('Sick Of Losing Soulmates') 64-bit Writing library : libebml v1.4.0 + libmatroska v1.6.1 Uploader : Brady Web : www.club-hd.com Video ID : 1 Format : AVC Format/Info : Advanced Video Codec Format profile : [email protected] Format settings : CABAC / 5 Ref Frames Format settings, CABAC : Yes Format settings, Reference frames : 5 frames Codec ID : V_MPEG4/ISO/AVC Duration : 2 h 45 min Bit rate : 11.8 Mb/s Width : 1 920 pixels Height : 804 pixels Display aspect ratio : 2.39:1 Frame rate mode : Constant Frame rate : 23.976 (24000/1001) FPS Color space : YUV Chroma subsampling : 4:2:0 Bit depth : 8 bits Scan type : Progressive Bits/(Pixel*Frame) : 0.319 Stream size : 13.7 GiB (73%) Writing library : x264 core 164 r3190 7ed753b Encoding settings : cabac=1 / ref=5 / deblock=1:-3:-3 / analyse=0x3:0x133 / me=umh / subme=9 / psy=1 / psy_rd=1.00:0.00 / mixed_ref=1 / me_range=16 / chroma_me=1 / trellis=2 / 8x8dct=1 / cqm=0 / deadzone=21,11 / fast_pskip=0 / chroma_qp_offset=-2 / threads=25 / lookahead_threads=2 / sliced_threads=0 / nr=0 / decimate=1 / interlaced=0 / bluray_compat=0 / constrained_intra=0 / bframes=3 / b_pyramid=2 / b_adapt=2 / b_bias=0 / direct=3 / weightb=1 / open_gop=0 / weightp=2 / keyint=250 / keyint_min=23 / scenecut=40 / intra_refresh=0 / rc_lookahead=60 / rc=crf / mbtree=1 / crf=14.5 / qcomp=0.60 / qpmin=0 / qpmax=69 / qpstep=4 / ip_ratio=1.40 / aq=1:1.00 Language : English Default : Yes Forced : No Audio #1 ID : 2 Format : AC-3 Format/Info : Audio Coding 3 Commercial name : Dolby Digital Codec ID : A_AC3 Duration : 2 h 45 min Bit rate mode : Constant Bit rate : 640 kb/s Channel(s) : 6 channels Channel layout : L R C LFE Ls Rs Sampling rate : 48.0 kHz Frame rate : 31.250 FPS (1536 SPF) Compression mode : Lossy Stream size : 759 MiB (4%) Title : Latino Language : Spanish Service kind : Complete Main Default : Yes Forced : No Audio #2 ID : 3 Format : MLP FBA 16-ch Format/Info : Meridian Lossless Packing FBA with 16-channel presentation Commercial name : Dolby TrueHD with Dolby Atmos Codec ID : A_TRUEHD Duration : 2 h 45 min Bit rate mode : Variable Bit rate : 3 257 kb/s Maximum bit rate : 5 547 kb/s Channel(s) : 8 channels Channel layout : L R C LFE Ls Rs Lb Rb Sampling rate : 48.0 kHz Frame rate : 1 200.000 FPS (40 SPF) Compression mode : Lossless Stream size : 3.77 GiB (20%) Title : Ingles Language : English Default : No Forced : No Number of dynamic objects : 11 Bed channel count : 1 channel Bed channel configuration : LFE Audio #3 ID : 4 Format : AC-3 Format/Info : Audio Coding 3 Commercial name : Dolby Digital Codec ID : A_AC3 Duration : 2 h 45 min Bit rate mode : Constant Bit rate : 448 kb/s Channel(s) : 6 channels Channel layout : L R C LFE Ls Rs Sampling rate : 48.0 kHz Frame rate : 31.250 FPS (1536 SPF) Compression mode : Lossy Stream size : 531 MiB (3%) Title : Ingles Language : English Service kind : Complete Main Default : No Forced : No Text #1 ID : 5 Format : UTF-8 Codec ID : S_TEXT/UTF8 Codec ID/Info : UTF-8 Plain Text Duration : 2 h 36 min Bit rate : 30 b/s Frame rate : 0.141 FPS Count of elements : 1326 Stream size : 35.6 KiB (0%) Title : Latino Language : Spanish Default : No Forced : No Text #2 ID : 6 Format : UTF-8 Codec ID : S_TEXT/UTF8 Codec ID/Info : UTF-8 Plain Text Duration : 2 h 39 min Bit rate : 4 b/s Frame rate : 0.022 FPS Count of elements : 214 Stream size : 5.53 KiB (0%) Title : Forzados Language : Spanish Default : Yes Forced : No Text #3 ID : 7 Format : PGS Muxing mode : zlib Codec ID : S_HDMV/PGS Codec ID/Info : Picture based subtitle format used on BDs/HD-DVDs Duration : 2 h 37 min Bit rate : 25.3 kb/s Frame rate : 0.381 FPS Count of elements : 3604 Stream size : 28.5 MiB (0%) Title : Ingles Language : English Default : No Forced : No CAPTURAS DESCARGA Todos los links son Intercambiables! Hidden content Click aquí para descargar desde 1Cloudfile CONTRASEÑA www.club-hd.com
Ficha Tecnica Título Original: Urgencias existenciales (Serie de TV) Año: 2024 Duración: 22 min. País: Corea del Sur Director: Paek Sun-woo, Oh Hyeon-jong Reparto: Park Hyung-shik, Park Shin-hye, Jang Hye-jin, Bong-sik Hyun, Yoon Park Género: Serie de TV, Comedia, Drama, Romance Sinopsis Dos médicos brillantes y antiguos rivales académicos que se reencuentran por casualidad lidian con problemas existenciales mientras hallan consuelo el uno en el otro. MEDIAINFO Formato : Matroska Formato de la versión : Version 4 Tamaño de archivo : 2,26 GiB Duración : 1 h 1 min Modo de tasa de bits : Variable Tasa de bits general : 5 225 kb/s Velocidad de fotogramas : 23,976 FPS Película : [Club-HD] Doctor Slump S01 [1080p] Fecha de codificación : 2024-05-10 04:35:07 UTC Aplicación de codifición : mkvmerge v82.0 ('I'm The President') 64-bit Librería de codificación : libebml v1.4.5 + libmatroska v1.7.1 Pagina Web : www.club-hd.com Uploader : Sider Vídeo ID : 1 Formato : AVC Formato/Info : Advanced Video Codec Formato del perfil : Main@L4 Ajustes del formato : CABAC / 3 Ref Frames Ajustes del formato, CABAC : Sí Ajustes del formato, RefFrames : 3 fotogramas ID códec : V_MPEG4/ISO/AVC Duración : 1 h 1 min Tipo de tasa de bits : Variable Tasa de bits : 5 000 kb/s Tasa de bits máxima : 7 500 kb/s Ancho : 1 920 píxeles Alto : 1 080 píxeles Relación de aspecto : 16:9 Modo velocidad fotogramas : Constante Velocidad de fotogramas : 23,976 (24000/1001) FPS Espacio de color : YUV Submuestreo croma : 4:2:0 Profundidad bits : 8 bits Tipo barrido : Progresivo Bits/(píxel*fotograma) : 0.101 Tamaño de pista : 2,11 GiB (93%) Título : [Club-HD] Doctor Slump S01 [1080p] Librería de codificación : x264 core 148 r2727 7d026e8 Opciones de codificación : cabac=1 / ref=3 / deblock=1:0:0 / analyse=0x1:0x111 / me=umh / subme=10 / psy=1 / psy_rd=1.00:0.00 / mixed_ref=1 / me_range=24 / chroma_me=1 / trellis=2 / 8x8dct=0 / cqm=0 / deadzone=21,11 / fast_pskip=1 / chroma_qp_offset=-2 / threads=6 / lookahead_threads=1 / sliced_threads=0 / nr=0 / decimate=1 / interlaced=0 / bluray_compat=0 / stitchable=1 / constrained_intra=0 / bframes=2 / b_pyramid=0 / b_adapt=2 / b_bias=0 / direct=3 / weightb=1 / open_gop=0 / weightp=2 / keyint=240 / keyint_min=121 / scenecut=0 / intra_refresh=0 / rc_lookahead=48 / rc=2pass / mbtree=1 / bitrate=5000 / ratetol=1.0 / qcomp=0.50 / qpmin=6 / qpmax=51 / qpstep=4 / cplxblur=20.0 / qblur=0.5 / vbv_maxrate=7500 / vbv_bufsize=10000 / nal_hrd=vbr / filler=0 / ip_ratio=1.40 / aq=1:1.00 Default : Sí Forced : No Audio #1 ID : 2 Formato : E-AC-3 Formato/Info : Enhanced AC-3 Nombre comercial : Dolby Digital Plus ID códec : A_EAC3 Duración : 1 h 1 min Tipo de tasa de bits : Constante Tasa de bits : 128 kb/s Canal(es) : 2 canales Channel layout : L R Velocidad de muestreo : 48,0 kHz Velocidad de fotogramas : 31,250 FPS (1536 SPF) Modo de compresión : Con pérdida Tamaño de pista : 56,7 MiB (2%) Título : Español latino [Sider] Idioma : Español Service kind : Complete Main Default : Sí Forced : No Audio #2 ID : 3 Formato : E-AC-3 Formato/Info : Enhanced AC-3 Nombre comercial : Dolby Digital Plus ID códec : A_EAC3 Duración : 1 h 1 min Tipo de tasa de bits : Constante Tasa de bits : 128 kb/s Canal(es) : 2 canales Channel layout : L R Velocidad de muestreo : 48,0 kHz Velocidad de fotogramas : 31,250 FPS (1536 SPF) Modo de compresión : Con pérdida Tamaño de pista : 56,7 MiB (2%) Título : Coreano [Sider] Idioma : Coreano Service kind : Complete Main Default : Sí Forced : No Texto #1 ID : 4 Formato : UTF-8 ID códec : S_TEXT/UTF8 ID códec/Info : UTF-8 Plain Text Título : Español latino [F] [Sider] Idioma : Español Default : Sí Forced : No Texto #2 ID : 5 Formato : UTF-8 ID códec : S_TEXT/UTF8 ID códec/Info : UTF-8 Plain Text Título : Español latino [C] [Sider] Idioma : Español Default : No Forced : No Menú 00:00:00.000 : en:Part 01 01:01:33.000 : en:Credits CAPTURAS ENLACES VIP 1 LINK VIP Hidden content ENLACES FREE Click aquí para descargar desde Fireload Click aquí para descargar desde 1Cloudfile Click aquí para descargar desde Qiwi CONTRASEÑA www.club-hd.com
La historia no contada del ambiente tóxico y abusivo dentro de la televisión infantil de los 90s. Relatos desgarradores de ex estrellas infantiles y miembros del equipo que investigan el equilibrio de poder en la industria y revelan una era que infligió heridas duraderas que aún se sienten hoy. El post se irá actualizando a como vayan saliendo los episodios semanales. Gracias al amigo y uploader Sider por brindar los WEB-DL. Format : Matroska Format version : Version 4 File size : 1.21 GiB Duration : 43 min 36 s Overall bit rate mode : Variable Overall bit rate : 3 956 kb/s Frame rate : 29.970 FPS Encoded date : 2024-05-09 22:30:19 UTC Writing application : mkvmerge v63.0.0 ('Everything') 32-bit Writing library : libebml v1.4.2 + libmatroska v1.6.4 Video ID : 1 Format : AVC Format/Info : Advanced Video Codec Format profile : [email protected] Format settings : CABAC / 4 Ref Frames Format settings, CABAC : Yes Format settings, Reference frames : 4 frames Codec ID : V_MPEG4/ISO/AVC Duration : 43 min 36 s Bit rate mode : Variable Bit rate : 3 697 kb/s Maximum bit rate : 10 000 kb/s Width : 1 920 pixels Height : 1 080 pixels Display aspect ratio : 16:9 Frame rate mode : Constant Frame rate : 29.970 (30000/1001) FPS Color space : YUV Chroma subsampling : 4:2:0 Bit depth : 8 bits Scan type : Progressive Bits/(Pixel*Frame) : 0.059 Stream size : 1.13 GiB (93%) Writing library : x264 core 164 Encoding settings : cabac=1 / ref=4 / deblock=1:0:0 / analyse=0x3:0x133 / me=umh / subme=10 / psy=1 / psy_rd=1.00:0.00 / mixed_ref=1 / me_range=24 / chroma_me=1 / trellis=2 / 8x8dct=1 / cqm=0 / deadzone=21,11 / fast_pskip=1 / chroma_qp_offset=-2 / threads=24 / lookahead_threads=2 / sliced_threads=0 / nr=0 / decimate=1 / interlaced=0 / bluray_compat=0 / stitchable=1 / constrained_intra=0 / bframes=3 / b_pyramid=2 / b_adapt=2 / b_bias=0 / direct=3 / weightb=1 / open_gop=0 / weightp=2 / keyint=120 / keyint_min=61 / scenecut=0 / intra_refresh=0 / rc_lookahead=120 / rc=crf / mbtree=1 / crf=20.0 / qcomp=0.60 / qpmin=0 / qpmax=69 / qpstep=4 / vbv_maxrate=10000 / vbv_bufsize=40000 / crf_max=0.0 / nal_hrd=vbr / filler=0 / ip_ratio=1.40 / aq=1:1.00 Default : Yes Forced : No Color range : Limited Color primaries : BT.709 Transfer characteristics : BT.709 Matrix coefficients : BT.709 Audio #1 ID : 2 Format : E-AC-3 Format/Info : Enhanced AC-3 Commercial name : Dolby Digital Plus Codec ID : A_EAC3 Duration : 43 min 36 s Bit rate mode : Constant Bit rate : 128 kb/s Channel(s) : 2 channels Channel layout : L R Sampling rate : 48.0 kHz Frame rate : 31.250 FPS (1536 SPF) Compression mode : Lossy Stream size : 39.9 MiB (3%) Title : Español latino Language : Spanish Service kind : Complete Main Default : Yes Forced : No Dialog Normalization : -23 dB compr : -0.28 dB dialnorm_Average : -23 dB dialnorm_Minimum : -23 dB dialnorm_Maximum : -23 dB Audio #2 ID : 3 Format : E-AC-3 Format/Info : Enhanced AC-3 Commercial name : Dolby Digital Plus Codec ID : A_EAC3 Duration : 43 min 36 s Bit rate mode : Constant Bit rate : 128 kb/s Channel(s) : 2 channels Channel layout : L R Sampling rate : 48.0 kHz Frame rate : 31.250 FPS (1536 SPF) Compression mode : Lossy Stream size : 39.9 MiB (3%) Language : English Service kind : Complete Main Default : No Forced : No Dialog Normalization : -23 dB compr : -0.28 dB dialnorm_Average : -23 dB dialnorm_Minimum : -23 dB dialnorm_Maximum : -23 dB Text #1 ID : 4 Format : UTF-8 Codec ID : S_TEXT/UTF8 Codec ID/Info : UTF-8 Plain Text Duration : 43 min 36 s Bit rate : 107 b/s Frame rate : 0.367 FPS Count of elements : 960 Stream size : 34.4 KiB (0%) Title : Español latino Language : Spanish Default : No Forced : No Text #2 ID : 5 Format : UTF-8 Codec ID : S_TEXT/UTF8 Codec ID/Info : UTF-8 Plain Text Duration : 43 min 35 s Bit rate : 119 b/s Frame rate : 0.345 FPS Count of elements : 901 Stream size : 38.0 KiB (0%) Title : Español latino (SDH) Language : Spanish Default : No Forced : No Menu 00:00:00.000 : en:Chapter 1 00:42:52.903 : en:Credits 00:43:22.866 : en:Chapter 2 Hidden content Click aquí para descargar desde Gofile Click aquí para descargar desde DooDrive Click aquí para descargar desde 1CloudFile www.club-hd.com
Ficha Tecnica Título Original: Hacks (Serie de TV) Año: 2021 Duración: 30 min. País: Estados Unidos Director: Lucia Aniello, Paul W. Downs, Jen Statsky, Lucia Aniello, Desiree Akhavan, Paul W. Downs Guion: Lucia Aniello, Paul W. Downs, Jen Statsky, Katherine Kearns, Joanna Calo, Ariel Karlin, Andrew Law, Pat Regan, Samantha Riley. Historia: Katherine Kearns Reparto: Jean Smart, Hannah Einbinder, Rose Abdoo, Hayes Beyersdorfer, Tanisha Harper, Josh Lopez, Ulysses Morazan, Rochelle Robinson, Jane Adams, Brittney Alger, Cassandra Blair, Olivia Boreham-Wing, Sean Patrick Bryan Género: Serie de TV, Comedia, Drama El post se irá actualizando a como vayan saliendo los episodios semanales. Sinopsis Explora el oscuro proceso de enseñanza y aprendizaje entre Deborah Vance, una legendaria cómica de Las Vegas, y Ava, una joven y resuelta escritora de 25 años. MEDIAINFO Formato : Matroska Formato de la versión : Version 4 Tamaño de archivo : 1,93 GiB Duración : 36 min 16 s Tasa de bits general : 7 634 kb/s Velocidad de fotogramas : 23,976 FPS Película : [Club-HD] Hacks S03 [1080p] Fecha de codificación : 2024-05-09 21:29:47 UTC Aplicación de codifición : mkvmerge v63.0.0 ('Everything') 32-bit Librería de codificación : libebml v1.4.2 + libmatroska v1.6.4 Pagina Web : www.club-hd.com Uploader : Sider Vídeo ID : 1 Formato : AVC Formato/Info : Advanced Video Codec Formato del perfil : High@L4 Ajustes del formato : CABAC / 4 Ref Frames Ajustes del formato, CABAC : Sí Ajustes del formato, RefFrames : 4 fotogramas ID códec : V_MPEG4/ISO/AVC Duración : 36 min 16 s Tipo de tasa de bits : Constante Tasa de bits : 6 202 kb/s Tasa de bits nominal : 10 000 kb/s Ancho : 1 920 píxeles Alto : 960 píxeles Relación de aspecto : 2,000 Modo velocidad fotogramas : Constante Velocidad de fotogramas : 23,976 (24000/1001) FPS Espacio de color : YUV Submuestreo croma : 4:2:0 Profundidad bits : 8 bits Tipo barrido : Progresivo Bits/(píxel*fotograma) : 0.140 Tamaño de pista : 1,57 GiB (81%) Título : [Club-HD] Hacks S03 [1080p] Idioma : Inglés Default : Sí Forced : No Rango de color : Limited Colores primarios : BT.709 Características transferencia : BT.709 Coeficientes matriz : BT.709 Audio #1 ID : 2 Formato : E-AC-3 Formato/Info : Enhanced AC-3 Nombre comercial : Dolby Digital Plus ID códec : A_EAC3 Duración : 36 min 16 s Tipo de tasa de bits : Constante Tasa de bits : 640 kb/s Canal(es) : 6 canales Channel layout : L R C LFE Ls Rs Velocidad de muestreo : 48,0 kHz Velocidad de fotogramas : 31,250 FPS (1536 SPF) Modo de compresión : Con pérdida Tamaño de pista : 166 MiB (8%) Título : Español latino [Sider] Idioma : Español Service kind : Complete Main Default : Sí Forced : No Audio #2 ID : 3 Formato : E-AC-3 Formato/Info : Enhanced AC-3 Nombre comercial : Dolby Digital Plus ID códec : A_EAC3 Duración : 36 min 16 s Tipo de tasa de bits : Constante Tasa de bits : 640 kb/s Canal(es) : 6 canales Channel layout : L R C LFE Ls Rs Velocidad de muestreo : 48,0 kHz Velocidad de fotogramas : 31,250 FPS (1536 SPF) Modo de compresión : Con pérdida Tamaño de pista : 166 MiB (8%) Título : Inglés [Sider] Idioma : Inglés Service kind : Complete Main Default : No Forced : No Texto #1 ID : 4 Formato : UTF-8 ID códec : S_TEXT/UTF8 ID códec/Info : UTF-8 Plain Text Título : Español latino [F] [Sider] Idioma : Español Default : Sí Forced : No Texto #2 ID : 5 Formato : UTF-8 ID códec : S_TEXT/UTF8 ID códec/Info : UTF-8 Plain Text Título : Español latino [C] [Sider] Idioma : Español Default : No Forced : No Texto #3 ID : 6 Formato : UTF-8 ID códec : S_TEXT/UTF8 ID códec/Info : UTF-8 Plain Text Título : Español latino (SDH) Idioma : Español Default : No Forced : No CAPTURAS ENLACES VIP 1 LINK VIP Hidden content ENLACES FREE Click aquí para descargar desde Fireload Click aquí para descargar desde 1Cloudfile Click aquí para descargar desde Qiwi CONTRASEÑA www.club-hd.com
Ficha Tecnica Título Original: Pequeñas mentirosas: Escuela de verano (Miniserie de TV) Año: 2024 Duración: 50 min. País: Estados Unidos Director: Roberto Aguirre-Sacasa, Lindsay Calhoon Bring Guion: Libros: Sara Shepard Reparto: Bailee Madison, Chandler Kinney, Zaria, Malia Pyles, Maia Reficco, Mallory Bechtel, Sharon Leal, Elena Goode, Eric Johnson, Alex Aiono, Lea Salonga, Jordan Gonzalez Género: Serie de TV, Thriller El post se irá actualizando a como vayan saliendo los episodios semanales. Sinopsis Tras los terribles acontecimientos de «Pretty Little Liars: Pecado Original", nuestras Pequeñas Mentirosas se enfrentan a un destino peor que la muerte: la escuela de verano. Sin embargo, Millwood High no es lo único que se interpone en el camino de sus divertidos trabajos de verano y sus nuevos y soñadores intereses amorosos. Un nuevo villano, que puede o no tener relación con A, ha llegado a la ciudad y va a ponerlas a todas a prueba. MEDIAINFO Formato : Matroska Formato de la versión : Version 4 Tamaño de archivo : 3,08 GiB Duración : 50 min 20 s Tasa de bits general : 8 771 kb/s Velocidad de fotogramas : 23,976 FPS Película : [Club-HD] Pretty Little Liars Summer School S02 [1080p] Fecha de codificación : 2024-05-09 16:18:10 UTC Aplicación de codifición : mkvmerge v63.0.0 ('Everything') 32-bit Librería de codificación : libebml v1.4.2 + libmatroska v1.6.4 Pagina Web : www.club-hd.com Uploader : Sider Vídeo ID : 1 Formato : AVC Formato/Info : Advanced Video Codec Formato del perfil : High@L4 Ajustes del formato : CABAC / 4 Ref Frames Ajustes del formato, CABAC : Sí Ajustes del formato, RefFrames : 4 fotogramas ID códec : V_MPEG4/ISO/AVC Duración : 50 min 20 s Tipo de tasa de bits : Constante Tasa de bits : 7 317 kb/s Tasa de bits nominal : 10 000 kb/s Ancho : 1 920 píxeles Alto : 960 píxeles Relación de aspecto : 2,000 Modo velocidad fotogramas : Constante Velocidad de fotogramas : 23,976 (24000/1001) FPS Espacio de color : YUV Submuestreo croma : 4:2:0 Profundidad bits : 8 bits Tipo barrido : Progresivo Bits/(píxel*fotograma) : 0.166 Tamaño de pista : 2,57 GiB (83%) Título : [Club-HD] Pretty Little Liars Summer School S02 [1080p] Idioma : Inglés Default : Sí Forced : No Rango de color : Limited Colores primarios : BT.709 Características transferencia : BT.709 Coeficientes matriz : BT.709 Audio #1 ID : 2 Formato : E-AC-3 Formato/Info : Enhanced AC-3 Nombre comercial : Dolby Digital Plus ID códec : A_EAC3 Duración : 50 min 20 s Tipo de tasa de bits : Constante Tasa de bits : 640 kb/s Canal(es) : 6 canales Channel layout : L R C LFE Ls Rs Velocidad de muestreo : 48,0 kHz Velocidad de fotogramas : 31,250 FPS (1536 SPF) Modo de compresión : Con pérdida Tamaño de pista : 230 MiB (7%) Título : Español latino [Sider] Idioma : Español Service kind : Complete Main Default : Sí Forced : No Audio #2 ID : 3 Formato : E-AC-3 Formato/Info : Enhanced AC-3 Nombre comercial : Dolby Digital Plus ID códec : A_EAC3 Duración : 50 min 20 s Tipo de tasa de bits : Constante Tasa de bits : 640 kb/s Canal(es) : 6 canales Channel layout : L R C LFE Ls Rs Velocidad de muestreo : 48,0 kHz Velocidad de fotogramas : 31,250 FPS (1536 SPF) Modo de compresión : Con pérdida Tamaño de pista : 230 MiB (7%) Título : Inglés [Sider] Idioma : Inglés Service kind : Complete Main Default : No Forced : No Texto #1 ID : 4 Formato : UTF-8 ID códec : S_TEXT/UTF8 ID códec/Info : UTF-8 Plain Text Título : Español latino [F] [Sider] Idioma : Español Default : Sí Forced : No Texto #2 ID : 5 Formato : UTF-8 ID códec : S_TEXT/UTF8 ID códec/Info : UTF-8 Plain Text Título : Español latino [C] [Sider] Idioma : Español Default : No Forced : No CAPTURAS ENLACES VIP 1 LINK VIP Hidden content ENLACES FREE Click aquí para descargar desde Fireload Click aquí para descargar desde 1Cloudfile Click aquí para descargar desde Qiwi CONTRASEÑA www.club-hd.com
Ficha Tecnica Título Original: Pequeñas mentirosas: Pecado original (Serie de TV) Año: 2022 Duración: 52 min. País: Estados Unidos Director: Roberto Aguirre-Sacasa, Lindsay Calhoon Bring, Lisa Soper, Cierra Glaude, Maggie Kiley, Alex Pillai, Roxanne Benjamin, Megan Griffiths Guion: Roberto Aguirre-Sacasa, Lindsay Calhoon Bring, Evelyn Yves, Michael Grassi, Katie Avery, Stasia Demick, Pamela Garcia Rooney, Danielle Iman, Eleanor Jean, Jenina Kibuka, Daniel G. King, Neil McNeil, Alexis Scheer. Libro: Sara Shepard Reparto: Bailee Madison, Chandler Kinney, Zaria, Maia Reficco, Malia Pyles, Mallory Bechtel, Jordan Gonzalez, Lilla Crawford, Carly Pope, Eric Johnson, Alex Aiono, Carson Rowland, Ben Cook Género: Serie de TV, Drama, Intriga, Thriller Sinopsis Hace veinte años una serie de tragedias casi destruye la ciudad obrera de Millwood. Ahora, un grupo muy diverso de adolescentes, las nuevas pequeñas mentirosas, sufren el tormento de un agresor desconocido. MEDIAINFO Formato : Matroska Formato de la versión : Version 4 Tamaño de archivo : 3,28 GiB Duración : 53 min 49 s Modo de tasa de bits : Variable Tasa de bits general : 8 737 kb/s Velocidad de fotogramas : 23,976 FPS Película : [Club-HD] Pretty Little Liars Original Sin S01 [1080p] Fecha de codificación : 2023-06-07 22:46:56 UTC Aplicación de codifición : mkvmerge v63.0.0 ('Everything') 32-bit Librería de codificación : libebml v1.4.2 + libmatroska v1.6.4 Pagina Web : www.club-hd.com Uploader : Sider Vídeo ID : 1 Formato : AVC Formato/Info : Advanced Video Codec Formato del perfil : High@L4 Ajustes del formato : CABAC / 4 Ref Frames Ajustes del formato, CABAC : Sí Ajustes del formato, RefFrames : 4 fotogramas ID códec : V_MPEG4/ISO/AVC Duración : 53 min 49 s Tipo de tasa de bits : Variable Tasa de bits : 8 250 kb/s Tasa de bits máxima : 12,4 Mb/s Ancho : 1 920 píxeles Alto : 1 080 píxeles Relación de aspecto : 16:9 Modo velocidad fotogramas : Constante Velocidad de fotogramas : 23,976 (24000/1001) FPS Espacio de color : YUV Submuestreo croma : 4:2:0 Profundidad bits : 8 bits Tipo barrido : Progresivo Bits/(píxel*fotograma) : 0.166 Tamaño de pista : 3,03 GiB (92%) Título : [Club-HD] Pretty Little Liars Original Sin S01 [1080p] Librería de codificación : x264 core 157 r2965 861cec4 Opciones de codificación : cabac=1 / ref=4 / deblock=1:0:0 / analyse=0x3:0x113 / me=hex / subme=7 / psy=1 / psy_rd=1.00:0.00 / mixed_ref=1 / me_range=16 / chroma_me=1 / trellis=1 / 8x8dct=1 / cqm=0 / deadzone=21,11 / fast_pskip=1 / chroma_qp_offset=-2 / threads=34 / lookahead_threads=5 / sliced_threads=0 / nr=0 / decimate=1 / interlaced=0 / bluray_compat=0 / constrained_intra=0 / bframes=3 / b_pyramid=2 / b_adapt=1 / b_bias=0 / direct=1 / weightb=1 / open_gop=0 / weightp=2 / keyint=96 / keyint_min=96 / scenecut=40 / intra_refresh=0 / rc_lookahead=40 / rc=2pass / mbtree=1 / bitrate=8250 / ratetol=1.0 / qcomp=0.60 / qpmin=0 / qpmax=69 / qpstep=4 / cplxblur=20.0 / qblur=0.5 / vbv_maxrate=12375 / vbv_bufsize=6187 / nal_hrd=vbr / filler=0 / ip_ratio=1.40 / aq=1:1.00 Idioma : Inglés Default : Sí Forced : No Rango de color : Limited Colores primarios : BT.709 Características transferencia : BT.709 Coeficientes matriz : BT.709 Audio #1 ID : 2 Formato : E-AC-3 Formato/Info : Enhanced AC-3 Nombre comercial : Dolby Digital Plus ID códec : A_EAC3 Duración : 53 min 49 s Tipo de tasa de bits : Constante Tasa de bits : 256 kb/s Canal(es) : 6 canales Channel layout : L R C LFE Ls Rs Velocidad de muestreo : 48,0 kHz Velocidad de fotogramas : 31,250 FPS (1536 SPF) Modo de compresión : Con pérdida Tamaño de pista : 98,6 MiB (3%) Título : Español latino [Sider] Idioma : Español Service kind : Complete Main Default : Sí Forced : No Audio #2 ID : 3 Formato : E-AC-3 Formato/Info : Enhanced AC-3 Nombre comercial : Dolby Digital Plus ID códec : A_EAC3 Duración : 53 min 49 s Tipo de tasa de bits : Constante Tasa de bits : 256 kb/s Canal(es) : 6 canales Channel layout : L R C LFE Ls Rs Velocidad de muestreo : 48,0 kHz Velocidad de fotogramas : 31,250 FPS (1536 SPF) Modo de compresión : Con pérdida Tamaño de pista : 98,6 MiB (3%) Título : Inglés [Sider] Idioma : Inglés Service kind : Complete Main Default : No Forced : No Texto #1 ID : 4 Formato : UTF-8 ID códec : S_TEXT/UTF8 ID códec/Info : UTF-8 Plain Text Título : Español latino [F] [Sider] Idioma : Español Default : Sí Forced : No Texto #2 ID : 5 Formato : UTF-8 ID códec : S_TEXT/UTF8 ID códec/Info : UTF-8 Plain Text Título : Español latino [C] [Sider] Idioma : Español Default : No Forced : No Menú 00:00:05.004 : en:Intro CAPTURAS ENLACES VIP 1 LINK VIP Hidden content ENLACES FREE Click aquí para descargar desde Fireload Click aquí para descargar desde 1Cloudfile Click aquí para descargar desde Qiwi CONTRASEÑA www.club-hd.com
SINOPSIS Personajes de muy diferentes orígenes se juntan cuando el avión en el que viajan se estrella en el Océano Pacífico. Cuando el avión de pasajeros se detiene peligrosamente cerca del borde de un barranco con los pasajeros y la tripulación supervivientes atrapados en una bolsa de aire, se produce una lucha de pesadilla por la supervivencia con el suministro de aire agotándose y los peligros acechando por todos lados. TRAILER DATOS TÉCNICOS: Video: 1080p H264 MP4 | Audios: Castellano AAC 5.1, Inglés AAC 5.1 | Subtítulos: Srt | Peso: 3.04 GB DESCARGA ⭐ 1 LINK MP4 VIP + VER ONLINE ⭐ Hidden content ENLACES FREE PÚBLICOS Descarga
Posición en rankings FA: 29° Las mejores películas de 2023 SINOPSIS Garra de hierro 20023... Basada en la vida de los inseparables hermanos Von Erich, que hicieron historia en el competitivo mundo de la lucha libre profesional a principios de la década de los 80. A través de la tragedia y el triunfo, bajo la sombra de su dominante padre y entrenador, los hermanos buscan la inmortalidad en el escenario más importante del deporte. Premios 2023: Asociación de Críticos Norteamericanos (NBR): Mejor reparto. 2 nominaciones 2023: Asociación de Críticos de Boston (BSFC): Nominada a Mejor reparto. TRAILER DATOS TÉCNICOS: Video: 1080p H264 MP4 | Audios: Español Latino AAC 2.0, Inglés AAC 5.1 | Subtítulos: Srt | Peso: 2.57 GB DESCARGA ⭐ 1 LINK MP4 VIP + VER ONLINE ⭐ Hidden content ENLACES FREE PÚBLICOS Descarga
SINOPSIS Erwin, una niña genio, es la estudiante más joven de la escuela secundaria. Ella se enfrenta a un problema de aislamiento social. Con su compañero marginado Winston, el dúo se une para inventar una sustancia química que cambiará la jerarquía de la escuela secundaria para siempre. TRAILER DATOS TÉCNICOS: Video: 1080p H264 MP4 | Audios: Español Latino AAC 2.0, Inglés AAC 5.1 | Subtítulos: Srt | Peso: 1.73 GB DESCARGA ⭐ 1 LINK MP4 VIP + VER ONLINE ⭐ Hidden content ENLACES FREE PÚBLICOS Descarga Descargar Popular Theory 2023 1080p en Full HD.
Ficha Tecnica Título Original: Materia oscura (Serie de TV) Año: 2024 Duración: Duración no disponible País: Estados Unidos Director: Blake Crouch, Louis Leterrier, Jakob Verbruggen, Roxann Dawson, Logan George, Celine Held, Alik Sakharov Guion: Blake Crouch. Novela: Blake Crouch. Autor: Blake Crouch Reparto: Joel Edgerton, Jennifer Connelly, Alice Braga, Jimmi Simpson, Dayo Okeniyi, Oakes Fegley, Amanda Brugel, Marquita Brooks, Jimmy Styx, Tiff Abreu, Bassam Abdelfattah, Missy Galvin, Angie Shriner Género: Serie de TV, Ciencia ficción, Intriga El post se irá actualizando a como vayan saliendo los episodios semanales. Sinopsis El físico Jason Dessen acaba en una versión alternativa de su vida tras construir una máquina que ofrece ir a vidas alternativas a la de uno mismo. Para volver con su vida original, Jason se embarcará en un tortuoso viaje para intentar salvar a su familia del enemigo más aterrador: él mismo... Basada en el best seller de Blake Crouch. MEDIAINFO Formato : Matroska Formato de la versión : Version 4 Tamaño de archivo : 9,67 GiB Duración : 53 min 30 s Tasa de bits general : 25,9 Mb/s Velocidad de fotogramas : 23,976 FPS Película : [Club-HD] Dark Matter S01 [2160p] Fecha de codificación : 2024-05-08 04:24:02 UTC Aplicación de codifición : mkvmerge v79.0 ('Funeral Pyres') 64-bit Librería de codificación : libebml v1.4.4 + libmatroska v1.7.1 Pagina Web : www.club-hd.com Uploader : Sider Vídeo ID : 1 Formato : HEVC Formato/Info : High Efficiency Video Coding Formato del perfil : Main 10@L5@High HDR format : Dolby Vision, Version 1.0, dvhe.08.06, BL+RPU, HDR10 compatible / SMPTE ST 2094 App 4, Version 1, HDR10+ Profile B compatible ID códec : V_MPEGH/ISO/HEVC Duración : 53 min 30 s Tasa de bits : 23,8 Mb/s Ancho : 3 840 píxeles Alto : 1 920 píxeles Relación de aspecto : 2,000 Modo velocidad fotogramas : Constante Velocidad de fotogramas : 23,976 (24000/1001) FPS Espacio de color : YUV Submuestreo croma : 4:2:0 (Type 2) Profundidad bits : 10 bits Bits/(píxel*fotograma) : 0.135 Tamaño de pista : 8,90 GiB (92%) Título : [Club-HD] Dark Matter S01 [2160p] Idioma : Inglés Default : Sí Forced : No Rango de color : Limited Colores primarios : BT.2020 Características transferencia : PQ Coeficientes matriz : BT.2020 non-constant Principios color monitor masterización : Display P3 Luminancia monitor masterización : min: 0.0050 cd/m2, max: 1000 cd/m2 Nivel ligero contenido máximo : 809 cd/m2 Nivel ligero fotograma medio máximo : 178 cd/m2 Audio #1 ID : 2 Formato : E-AC-3 JOC Formato/Info : Enhanced AC-3 with Joint Object Coding Nombre comercial : Dolby Digital Plus with Dolby Atmos ID códec : A_EAC3 Duración : 53 min 30 s Tipo de tasa de bits : Constante Tasa de bits : 768 kb/s Canal(es) : 6 canales Channel layout : L R C LFE Ls Rs Velocidad de muestreo : 48,0 kHz Velocidad de fotogramas : 31,250 FPS (1536 SPF) Modo de compresión : Con pérdida Tamaño de pista : 294 MiB (3%) Título : Español latino [Sider] Idioma : Español Service kind : Complete Main Default : Sí Forced : No Complexity index : 16 Number of dynamic objects : 15 Bed channel count : 1 canal Bed channel configuration : LFE Audio #2 ID : 3 Formato : E-AC-3 JOC Formato/Info : Enhanced AC-3 with Joint Object Coding Nombre comercial : Dolby Digital Plus with Dolby Atmos ID códec : A_EAC3 Duración : 53 min 30 s Tipo de tasa de bits : Constante Tasa de bits : 768 kb/s Canal(es) : 6 canales Channel layout : L R C LFE Ls Rs Velocidad de muestreo : 48,0 kHz Velocidad de fotogramas : 31,250 FPS (1536 SPF) Modo de compresión : Con pérdida Tamaño de pista : 294 MiB (3%) Título : Inglés [Sider] Idioma : Inglés Service kind : Complete Main Default : No Forced : No Complexity index : 16 Number of dynamic objects : 15 Bed channel count : 1 canal Bed channel configuration : LFE Texto #1 ID : 4 Formato : UTF-8 ID códec : S_TEXT/UTF8 ID códec/Info : UTF-8 Plain Text Título : Español latino [F] [Sider] Idioma : Español Default : Sí Forced : No Texto #2 ID : 5 Formato : UTF-8 ID códec : S_TEXT/UTF8 ID códec/Info : UTF-8 Plain Text Título : Español latino [C] [Sider] Idioma : Español Default : No Forced : No CAPTURAS ENLACES VIP 1 LINK VIP Hidden content ENLACES FREE Click aquí para descargar desde Fireload Click aquí para descargar desde 1Cloudfile Click aquí para descargar desde Qiwi CONTRASEÑA www.club-hd.com
Ficha Tecnica Título Original: Materia oscura (Serie de TV) Año: 2024 Duración: Duración no disponible País: Estados Unidos Director: Blake Crouch, Louis Leterrier, Jakob Verbruggen, Roxann Dawson, Logan George, Celine Held, Alik Sakharov Guion: Blake Crouch. Novela: Blake Crouch. Autor: Blake Crouch Reparto: Joel Edgerton, Jennifer Connelly, Alice Braga, Jimmi Simpson, Dayo Okeniyi, Oakes Fegley, Amanda Brugel, Marquita Brooks, Jimmy Styx, Tiff Abreu, Bassam Abdelfattah, Missy Galvin, Angie Shriner Género: Serie de TV, Ciencia ficción, Intriga El post se irá actualizando a como vayan saliendo los episodios semanales. Sinopsis El físico Jason Dessen acaba en una versión alternativa de su vida tras construir una máquina que ofrece ir a vidas alternativas a la de uno mismo. Para volver con su vida original, Jason se embarcará en un tortuoso viaje para intentar salvar a su familia del enemigo más aterrador: él mismo... Basada en el best seller de Blake Crouch. MEDIAINFO Formato : Matroska Formato de la versión : Version 4 Tamaño de archivo : 4,36 GiB Duración : 53 min 30 s Tasa de bits general : 11,7 Mb/s Velocidad de fotogramas : 23,976 FPS Película : [Club-HD] Dark Matter S01 [1080p] Fecha de codificación : 2024-05-08 01:29:21 UTC Aplicación de codifición : mkvmerge v63.0.0 ('Everything') 32-bit Librería de codificación : libebml v1.4.2 + libmatroska v1.6.4 Pagina Web : www.club-hd.com Uploader : Sider Vídeo ID : 1 Formato : AVC Formato/Info : Advanced Video Codec Formato del perfil : High@L4 Ajustes del formato : CABAC / 4 Ref Frames Ajustes del formato, CABAC : Sí Ajustes del formato, RefFrames : 4 fotogramas ID códec : V_MPEG4/ISO/AVC Duración : 53 min 30 s Tasa de bits : 9 887 kb/s Ancho : 1 920 píxeles Alto : 960 píxeles Relación de aspecto : 2,000 Modo velocidad fotogramas : Constante Velocidad de fotogramas : 23,976 (24000/1001) FPS Espacio de color : YUV Submuestreo croma : 4:2:0 Profundidad bits : 8 bits Tipo barrido : Progresivo Bits/(píxel*fotograma) : 0.224 Tamaño de pista : 3,70 GiB (85%) Título : [Club-HD] Dark Matter S01 [1080p] Idioma : Inglés Default : Sí Forced : No Rango de color : Limited Colores primarios : BT.709 Características transferencia : BT.709 Coeficientes matriz : BT.709 Audio #1 ID : 2 Formato : E-AC-3 JOC Formato/Info : Enhanced AC-3 with Joint Object Coding Nombre comercial : Dolby Digital Plus with Dolby Atmos ID códec : A_EAC3 Duración : 53 min 30 s Tipo de tasa de bits : Constante Tasa de bits : 768 kb/s Canal(es) : 6 canales Channel layout : L R C LFE Ls Rs Velocidad de muestreo : 48,0 kHz Velocidad de fotogramas : 31,250 FPS (1536 SPF) Modo de compresión : Con pérdida Tamaño de pista : 294 MiB (7%) Título : Español latino [Sider] Idioma : Español Service kind : Complete Main Default : Sí Forced : No Complexity index : 16 Number of dynamic objects : 15 Bed channel count : 1 canal Bed channel configuration : LFE Audio #2 ID : 3 Formato : E-AC-3 JOC Formato/Info : Enhanced AC-3 with Joint Object Coding Nombre comercial : Dolby Digital Plus with Dolby Atmos ID códec : A_EAC3 Duración : 53 min 30 s Tipo de tasa de bits : Constante Tasa de bits : 768 kb/s Canal(es) : 6 canales Channel layout : L R C LFE Ls Rs Velocidad de muestreo : 48,0 kHz Velocidad de fotogramas : 31,250 FPS (1536 SPF) Modo de compresión : Con pérdida Tamaño de pista : 294 MiB (7%) Título : Inglés [Sider] Idioma : Inglés Service kind : Complete Main Default : No Forced : No Complexity index : 16 Number of dynamic objects : 15 Bed channel count : 1 canal Bed channel configuration : LFE Texto #1 ID : 4 Formato : UTF-8 ID códec : S_TEXT/UTF8 ID códec/Info : UTF-8 Plain Text Título : Español latino [F] [Sider] Idioma : Español Default : Sí Forced : No Texto #2 ID : 5 Formato : UTF-8 ID códec : S_TEXT/UTF8 ID códec/Info : UTF-8 Plain Text Título : Español latino [C] [Sider] Idioma : Español Default : No Forced : No CAPTURAS ENLACES VIP 1 LINK VIP Hidden content ENLACES FREE Click aquí para descargar desde Fireload Click aquí para descargar desde 1Cloudfile Click aquí para descargar desde Qiwi CONTRASEÑA www.club-hd.com
Ficha Tecnica Título Original: Darkness of Man Año: 2024 Duración: 109 min. País: Estados Unidos Director: James Cullen Bressack Guion: James Cullen Bressack, Alethea Hnatko-Cho. Historia original: Jean-Claude Van Damme, James Cullen Bressack Reparto: Jean-Claude Van Damme, Eric Roberts, Kristanna Loken, Zack Ward, Shannen Doherty, Spencer Breslin, Cynthia Rothrock, Galadriel Stineman, Weston Cage, Kristos Andrews, Marina Mazepa, Sticky Fingaz, Lorenzo Antonucci Género: Acción, Thriller Sinopsis Russell Hatch (Jean-Claude Van Damme), un agente de la Interpol que asume el papel de figura paterna para Jayden, el hijo de un informante asesinado en una redada de rutina que salió mal. Años más tarde, Hatch se encuentra protegiendo a Jayden y a su abuelo de un grupo de pandillas despiadadas en una guerra territorial total, sin detenerse ante nada para proteger a Jayden y luchar contra cualquiera que se interponga en su camino. MEDIAINFO Formato : Matroska Formato de la versión : Version 4 Tamaño de archivo : 7,70 GiB Duración : 1 h 48 min Tasa de bits general : 10,1 Mb/s Velocidad de fotogramas : 23,976 FPS Película : [Club-HD] Darkness of Man [1080p] Fecha de codificación : 2024-05-07 17:40:56 UTC Aplicación de codifición : mkvmerge v63.0.0 ('Everything') 32-bit Librería de codificación : libebml v1.4.2 + libmatroska v1.6.4 Pagina Web : www.club-hd.com Uploader : Sider Vídeo ID : 1 Formato : AVC Formato/Info : Advanced Video Codec Formato del perfil : High@L4 Ajustes del formato : CABAC / 4 Ref Frames Ajustes del formato, CABAC : Sí Ajustes del formato, RefFrames : 4 fotogramas ID códec : V_MPEG4/ISO/AVC Duración : 1 h 48 min Tipo de tasa de bits : Constante Tasa de bits : 9 083 kb/s Tasa de bits nominal : 10 000 kb/s Ancho : 1 920 píxeles Alto : 800 píxeles Relación de aspecto : 2,40:1 Modo velocidad fotogramas : Constante Velocidad de fotogramas : 23,976 (24000/1001) FPS Espacio de color : YUV Submuestreo croma : 4:2:0 Profundidad bits : 8 bits Tipo barrido : Progresivo Bits/(píxel*fotograma) : 0.247 Tamaño de pista : 6,89 GiB (89%) Título : [Club-HD] Darkness of Man [1080p] Idioma : Inglés Default : Sí Forced : No Rango de color : Limited Colores primarios : BT.709 Características transferencia : BT.709 Coeficientes matriz : BT.709 Audio #1 ID : 2 Formato : E-AC-3 Formato/Info : Enhanced AC-3 Nombre comercial : Dolby Digital Plus ID códec : A_EAC3 Duración : 1 h 48 min Tipo de tasa de bits : Constante Tasa de bits : 224 kb/s Canal(es) : 2 canales Channel layout : L R Velocidad de muestreo : 48,0 kHz Velocidad de fotogramas : 31,250 FPS (1536 SPF) Modo de compresión : Con pérdida Tamaño de pista : 174 MiB (2%) Título : Español latino [Sider] Idioma : Español Service kind : Complete Main Default : Sí Forced : No Audio #2 ID : 3 Formato : E-AC-3 Formato/Info : Enhanced AC-3 Nombre comercial : Dolby Digital Plus ID códec : A_EAC3 Duración : 1 h 48 min Tipo de tasa de bits : Constante Tasa de bits : 640 kb/s Canal(es) : 6 canales Channel layout : L R C LFE Ls Rs Velocidad de muestreo : 48,0 kHz Velocidad de fotogramas : 31,250 FPS (1536 SPF) Modo de compresión : Con pérdida Tamaño de pista : 497 MiB (6%) Título : Inglés [Sider] Idioma : Inglés Service kind : Complete Main Default : No Forced : No Texto #1 ID : 4 Formato : UTF-8 ID códec : S_TEXT/UTF8 ID códec/Info : UTF-8 Plain Text Título : Español latino [F] [Sider] Idioma : Español Default : Sí Forced : No Texto #2 ID : 5 Formato : UTF-8 ID códec : S_TEXT/UTF8 ID códec/Info : UTF-8 Plain Text Título : Español latino [C] [Sider] Idioma : Español Default : No Forced : No CAPTURAS ENLACES VIP 1 LINK VIP Hidden content ENLACES FREE Click aquí para descargar desde Fireload Click aquí para descargar desde 1Cloudfile CONTRASEÑA www.club-hd.com
Ficha Tecnica Título Original: Cazafantasmas: Imperio helado Año: 2024 Duración: 115 min. País: Estados Unidos Director: Gil Kenan Guion: Gil Kenan, Jason Reitman Reparto: Paul Rudd, Carrie Coon, Finn Wolfhard, Mckenna Grace, Kumail Nanjiani, Patton Oswalt, Celeste O'Connor, Logan Kim, Dan Aykroyd, Ernie Hudson, Annie Potts, Emily Alyn Lind, Bill Murray Género: Fantástico, Comedia Sinopsis Después de los eventos de Oklahoma, el equipo de Cazafantasmas regresa a donde comenzó todo: ¡Nueva York! La historia de la familia Spengler continúa con un nuevo grupo de Cazafantasmas. MEDIAINFO Formato : Matroska Formato de la versión : Version 4 Tamaño de archivo : 20,2 GiB Duración : 1 h 56 min Tasa de bits general : 24,8 Mb/s Velocidad de fotogramas : 23,976 FPS Película : [Club-HD] Ghostbusters - Frozen Empire DV +HDR10 [2160p] Fecha de codificación : 2024-05-07 15:20:08 UTC Aplicación de codifición : mkvmerge v82.0 ('I'm The President') 64-bit Librería de codificación : libebml v1.4.5 + libmatroska v1.7.1 Pagina Web : www.club-hd.com Uploader : Sider Vídeo ID : 1 Formato : HEVC Formato/Info : High Efficiency Video Coding Formato del perfil : Main 10@L5@High HDR format : Dolby Vision, Version 1.0, dvhe.08.06, BL+RPU, HDR10 compatible / SMPTE ST 2094 App 4, Version 1, HDR10+ Profile B compatible ID códec : V_MPEGH/ISO/HEVC Duración : 1 h 56 min Tasa de bits : 23,3 Mb/s Ancho : 3 840 píxeles Alto : 1 604 píxeles Relación de aspecto : 2,39:1 Modo velocidad fotogramas : Constante Velocidad de fotogramas : 23,976 (24000/1001) FPS Espacio de color : YUV Submuestreo croma : 4:2:0 (Type 2) Profundidad bits : 10 bits Bits/(píxel*fotograma) : 0.158 Tamaño de pista : 19,0 GiB (94%) Título : [Club-HD] Ghostbusters - Frozen Empire DV +HDR10 [2160p] Idioma : Inglés Default : Sí Forced : No Rango de color : Limited Colores primarios : BT.2020 Características transferencia : PQ Coeficientes matriz : BT.2020 non-constant Principios color monitor masterización : BT.2020 Luminancia monitor masterización : min: 0.0050 cd/m2, max: 1000 cd/m2 Nivel ligero contenido máximo : 649 cd/m2 Nivel ligero fotograma medio máximo : 181 cd/m2 Audio #1 ID : 2 Formato : AC-3 Formato/Info : Audio Coding 3 Nombre comercial : Dolby Digital ID códec : A_AC3 Duración : 1 h 56 min Tipo de tasa de bits : Constante Tasa de bits : 384 kb/s Canal(es) : 6 canales Channel layout : L R C LFE Ls Rs Velocidad de muestreo : 48,0 kHz Velocidad de fotogramas : 31,250 FPS (1536 SPF) Modo de compresión : Con pérdida Tamaño de pista : 321 MiB (2%) Título : Español latino [Sider] Idioma : Español Service kind : Complete Main Default : Sí Forced : No Audio #2 ID : 3 Formato : E-AC-3 Formato/Info : Enhanced AC-3 Nombre comercial : Dolby Digital Plus ID códec : A_EAC3 Duración : 1 h 56 min Tipo de tasa de bits : Constante Tasa de bits : 640 kb/s Canal(es) : 6 canales Channel layout : L R C LFE Ls Rs Velocidad de muestreo : 48,0 kHz Velocidad de fotogramas : 31,250 FPS (1536 SPF) Modo de compresión : Con pérdida Retraso relativo al vídeo : 12 ms Tamaño de pista : 534 MiB (3%) Título : Inglés [Sider] Idioma : Inglés Service kind : Complete Main Default : Sí Forced : No Texto #1 ID : 4 Formato : UTF-8 ID códec : S_TEXT/UTF8 ID códec/Info : UTF-8 Plain Text Título : Español latino [F] [Sider] Idioma : Español Default : Sí Forced : No Texto #2 ID : 5 Formato : UTF-8 ID códec : S_TEXT/UTF8 ID códec/Info : UTF-8 Plain Text Título : Español latino [C] [Sider] Idioma : Español Default : No Forced : No Menú 00:00:00.000 : en:Scene 1 01:49:12.980 : en:End Credits CAPTURAS ENLACES VIP 1 LINK VIP Hidden content ENLACES FREE Click aquí para descargar desde Fireload Click aquí para descargar desde 1Cloudfile Click aquí para descargar desde Qiwi CONTRASEÑA www.club-hd.com
Sinopsis Después de los eventos de Oklahoma, el equipo de Cazafantasmas regresa a donde comenzó todo: ¡Nueva York! La historia de la familia Spengler continúa con un nuevo grupo de Cazafantasmas. MEDIAINFO General Unique ID : 23105227541478483374800219008165047945 (0x1161E7AB6B5941ED5172F665F6296E89) Format : Matroska Format version : Version 4 File size : 5.89 GiB Duration : 1 h 55 min Overall bit rate : 7 327 kb/s Frame rate : 23.976 FPS Encoded date : 2024-05-07 12:11:03 UTC Writing application : mkvmerge v49.0.0 ('Sick Of Losing Soulmates') 64-bit Writing library : libebml v1.4.0 + libmatroska v1.6.1 Uploader : Brady Web : www.club-hd.com Video ID : 1 Format : AVC Format/Info : Advanced Video Codec Format profile : High@L4 Format settings : CABAC / 5 Ref Frames Format settings, CABAC : Yes Format settings, Reference frames : 5 frames Codec ID : V_MPEG4/ISO/AVC Duration : 1 h 55 min Bit rate : 6 557 kb/s Width : 1 920 pixels Height : 802 pixels Display aspect ratio : 2.39:1 Frame rate mode : Constant Frame rate : 23.976 (24000/1001) FPS Color space : YUV Chroma subsampling : 4:2:0 Bit depth : 8 bits Scan type : Progressive Bits/(Pixel*Frame) : 0.178 Stream size : 5.27 GiB (89%) Language : English Default : Yes Forced : No Color range : Limited Color primaries : BT.709 Transfer characteristics : BT.709 Matrix coefficients : BT.709 Audio #1 ID : 2 Format : AC-3 Format/Info : Audio Coding 3 Commercial name : Dolby Digital Codec ID : A_AC3 Duration : 1 h 55 min Bit rate mode : Constant Bit rate : 384 kb/s Channel(s) : 6 channels Channel layout : L R C LFE Ls Rs Sampling rate : 48.0 kHz Frame rate : 31.250 FPS (1536 SPF) Compression mode : Lossy Stream size : 316 MiB (5%) Title : Latino Language : Spanish Service kind : Complete Main Default : Yes Forced : No Audio #2 ID : 3 Format : AC-3 Format/Info : Audio Coding 3 Commercial name : Dolby Digital Codec ID : A_AC3 Duration : 1 h 55 min Bit rate mode : Constant Bit rate : 384 kb/s Channel(s) : 6 channels Channel layout : L R C LFE Ls Rs Sampling rate : 48.0 kHz Frame rate : 31.250 FPS (1536 SPF) Compression mode : Lossy Stream size : 316 MiB (5%) Title : Ingles Language : English Service kind : Complete Main Default : No Forced : No Text #1 ID : 4 Format : UTF-8 Codec ID : S_TEXT/UTF8 Codec ID/Info : UTF-8 Plain Text Duration : 1 h 53 min Bit rate : 47 b/s Frame rate : 0.190 FPS Count of elements : 1299 Stream size : 40.0 KiB (0%) Title : Latino Language : Spanish Default : No Forced : No Text #2 ID : 5 Format : UTF-8 Codec ID : S_TEXT/UTF8 Codec ID/Info : UTF-8 Plain Text Duration : 1 h 53 min Bit rate : 0 b/s Frame rate : 0.003 FPS Count of elements : 19 Stream size : 749 Bytes (0%) Title : Forzados Language : Spanish Default : Yes Forced : No Text #3 ID : 6 Format : UTF-8 Codec ID : S_TEXT/UTF8 Codec ID/Info : UTF-8 Plain Text Duration : 1 h 46 min Bit rate : 55 b/s Frame rate : 0.219 FPS Count of elements : 1403 Stream size : 43.1 KiB (0%) Title : Ingles Language : English Default : No Forced : No CAPTURAS DESCARGA Todos los links son Intercambiables! Hidden content Click aquí para descargar desde 1Cloudfile CONTRASEÑA www.club-hd.com
Sinopsis A una banda de delincuentes se les ha encargado secuestrar a Abigail, una bailarina de doce años hija de una poderosa figura del inframundo. Su misión requiere también vigilarla durante la noche para poder cobrar un rescate de 50 millones de dólares. En una mansión aislada, los captores comienzan a desaparecer, uno por uno, y descubren, para su creciente horror, que la pequeña niña con la que están encerrados no es normal y está mostrando su verdadera naturaleza. MEDIAINFO General Unique ID : 61064472539259261793369320407149837051 (0x2DF096F158BC037247FDDA0DF55BFAFB) Format : Matroska Format version : Version 4 File size : 5.94 GiB Duration : 1 h 49 min Overall bit rate : 7 771 kb/s Frame rate : 23.976 FPS Encoded date : 2024-05-07 12:10:54 UTC Writing application : mkvmerge v49.0.0 ('Sick Of Losing Soulmates') 64-bit Writing library : libebml v1.4.0 + libmatroska v1.6.1 Uploader : Brady Web : www.club-hd.com Video ID : 1 Format : AVC Format/Info : Advanced Video Codec Format profile : High@L4 Format settings : CABAC / 5 Ref Frames Format settings, CABAC : Yes Format settings, Reference frames : 5 frames Codec ID : V_MPEG4/ISO/AVC Duration : 1 h 49 min Bit rate : 6 616 kb/s Width : 1 920 pixels Height : 800 pixels Display aspect ratio : 2.40:1 Frame rate mode : Constant Frame rate : 23.976 (24000/1001) FPS Color space : YUV Chroma subsampling : 4:2:0 Bit depth : 8 bits Scan type : Progressive Bits/(Pixel*Frame) : 0.180 Stream size : 5.06 GiB (85%) Language : English Default : Yes Forced : No Color range : Limited Color primaries : BT.709 Transfer characteristics : BT.709 Matrix coefficients : BT.709 Audio #1 ID : 2 Format : AC-3 Format/Info : Audio Coding 3 Commercial name : Dolby Digital Codec ID : A_AC3 Duration : 1 h 49 min Bit rate mode : Constant Bit rate : 384 kb/s Channel(s) : 6 channels Channel layout : L R C LFE Ls Rs Sampling rate : 48.0 kHz Frame rate : 31.250 FPS (1536 SPF) Compression mode : Lossy Stream size : 301 MiB (5%) Title : Latino Language : Spanish Service kind : Complete Main Default : Yes Forced : No Audio #2 ID : 3 Format : E-AC-3 JOC Format/Info : Enhanced AC-3 with Joint Object Coding Commercial name : Dolby Digital Plus with Dolby Atmos Codec ID : A_EAC3 Duration : 1 h 49 min Bit rate mode : Constant Bit rate : 768 kb/s Channel(s) : 6 channels Channel layout : L R C LFE Ls Rs Sampling rate : 48.0 kHz Frame rate : 31.250 FPS (1536 SPF) Compression mode : Lossy Stream size : 602 MiB (10%) Title : Ingles Language : English Service kind : Complete Main Default : No Forced : No Complexity index : 16 Number of dynamic objects : 15 Bed channel count : 1 channel Bed channel configuration : LFE Text #1 ID : 4 Format : UTF-8 Codec ID : S_TEXT/UTF8 Codec ID/Info : UTF-8 Plain Text Duration : 1 h 46 min Bit rate : 42 b/s Frame rate : 0.195 FPS Count of elements : 1251 Stream size : 33.5 KiB (0%) Title : Latino Language : Spanish Default : No Forced : No Text #2 ID : 5 Format : UTF-8 Codec ID : S_TEXT/UTF8 Codec ID/Info : UTF-8 Plain Text Duration : 1 h 44 min Bit rate : 50 b/s Frame rate : 0.235 FPS Count of elements : 1478 Stream size : 38.6 KiB (0%) Title : Ingles Language : English Default : No Forced : No CAPTURAS DESCARGA Todos los links son Intercambiables! Hidden content Click aquí para descargar desde 1Cloudfile CONTRASEÑA www.club-hd.com
Ficha Tecnica Título Original: Abigail Año: 2024 Duración: 109 min. País: Estados Unidos Director: Matt Bettinelli-Olpin, Tyler Gillett Guion: Guy Busick, Stephen Shields Reparto: Melissa Barrera, Dan Stevens, Alisha Weir, Kathryn Newton, William Catlett, Giancarlo Esposito, Kevin Durand, Angus Cloud, Matthew Goode Género: Terror, Fantástico Sinopsis A una banda de delincuentes se les ha encargado secuestrar a Abigail, una bailarina de doce años hija de una poderosa figura del inframundo. Su misión requiere también vigilarla durante la noche para poder cobrar un rescate de 50 millones de dólares. En una mansión aislada, los captores comienzan a desaparecer, uno por uno, y descubren, para su creciente horror, que la pequeña niña con la que están encerrados no es normal y está mostrando su verdadera naturaleza. MEDIAINFO Formato : Matroska Formato de la versión : Version 4 Tamaño de archivo : 19,6 GiB Duración : 1 h 49 min Tasa de bits general : 25,6 Mb/s Velocidad de fotogramas : 23,976 FPS Película : [Club-HD] Abigail DV +HDR10 [2160p] Fecha de codificación : 2024-05-07 06:18:56 UTC Aplicación de codifición : mkvmerge v82.0 ('I'm The President') 64-bit Librería de codificación : libebml v1.4.5 + libmatroska v1.7.1 Pagina Web : www.club-hd.com Uploader : Sider Vídeo ID : 1 Formato : HEVC Formato/Info : High Efficiency Video Coding Formato del perfil : Main 10@L5@High HDR format : Dolby Vision, Version 1.0, dvhe.08.06, BL+RPU, HDR10 compatible / SMPTE ST 2094 App 4, Version 1, HDR10+ Profile B compatible ID códec : V_MPEGH/ISO/HEVC Duración : 1 h 49 min Tasa de bits : 24,0 Mb/s Ancho : 3 840 píxeles Alto : 1 600 píxeles Relación de aspecto : 2,40:1 Modo velocidad fotogramas : Constante Velocidad de fotogramas : 23,976 (24000/1001) FPS Espacio de color : YUV Submuestreo croma : 4:2:0 (Type 2) Profundidad bits : 10 bits Bits/(píxel*fotograma) : 0.163 Tamaño de pista : 18,3 GiB (94%) Título : [Club-HD] Abigail DV +HDR10 [2160p] Idioma : Inglés Default : Sí Forced : No Rango de color : Limited Colores primarios : BT.2020 Características transferencia : PQ Coeficientes matriz : BT.2020 non-constant Principios color monitor masterización : Display P3 Luminancia monitor masterización : min: 0.0050 cd/m2, max: 4000 cd/m2 Nivel ligero contenido máximo : 1048 cd/m2 Nivel ligero fotograma medio máximo : 142 cd/m2 Audio #1 ID : 2 Formato : AC-3 Formato/Info : Audio Coding 3 Nombre comercial : Dolby Digital ID códec : A_AC3 Duración : 1 h 49 min Tipo de tasa de bits : Constante Tasa de bits : 384 kb/s Canal(es) : 6 canales Channel layout : L R C LFE Ls Rs Velocidad de muestreo : 48,0 kHz Velocidad de fotogramas : 31,250 FPS (1536 SPF) Modo de compresión : Con pérdida Tamaño de pista : 301 MiB (1%) Título : Español latino [Sider] Idioma : Español Service kind : Complete Main Default : Sí Forced : No Audio #2 ID : 3 Formato : E-AC-3 JOC Formato/Info : Enhanced AC-3 with Joint Object Coding Nombre comercial : Dolby Digital Plus with Dolby Atmos ID códec : A_EAC3 Duración : 1 h 49 min Tipo de tasa de bits : Constante Tasa de bits : 768 kb/s Canal(es) : 6 canales Channel layout : L R C LFE Ls Rs Velocidad de muestreo : 48,0 kHz Velocidad de fotogramas : 31,250 FPS (1536 SPF) Modo de compresión : Con pérdida Tamaño de pista : 602 MiB (3%) Título : Inglés [Sider] Idioma : Inglés Service kind : Complete Main Default : Sí Forced : No Complexity index : 16 Number of dynamic objects : 15 Bed channel count : 1 canal Bed channel configuration : LFE Texto ID : 4 Formato : UTF-8 ID códec : S_TEXT/UTF8 ID códec/Info : UTF-8 Plain Text Título : Español latino [C] [Sider] Idioma : Español Default : Sí Forced : No Menú 00:00:00.000 : en:Chapter 01 00:09:30.779 : en:Chapter 02 00:15:10.285 : en:Chapter 03 00:19:58.156 : en:Chapter 04 00:25:56.514 : en:Chapter 05 00:32:13.892 : en:Chapter 06 00:38:36.983 : en:Chapter 07 00:46:24.951 : en:Chapter 08 00:53:19.574 : en:Chapter 09 00:59:57.430 : en:Chapter 10 01:04:18.900 : en:Chapter 11 01:14:32.597 : en:Chapter 12 01:23:23.211 : en:Chapter 13 01:31:34.494 : en:Chapter 14 01:37:43.405 : en:Chapter 15 01:44:59.132 : en:Chapter 16 CAPTURAS ENLACES VIP 1 LINK VIP Hidden content ENLACES FREE Click aquí para descargar desde Fireload Click aquí para descargar desde 1Cloudfile Click aquí para descargar desde Qiwi CONTRASEÑA www.club-hd.com
Ficha Tecnica Título Original: Bleach: Thousand-Year Blood War (Serie de TV) Año: 2022 Duración: 24 min. País: Japón Director: Tomohisa Taguchi Guion: Tomohisa Taguchi, Masaki Hiramatsu. Manga: Kubo Tite Género: Serie de TV, Animación, Aventuras, Acción, Fantástico Sinopsis Secuela de la serie anime "Bleach", abarcando el arco argumental final del manga original, "La Guerra Sangrienta de los Mil Años". MEDIAINFO Formato : Matroska Formato de la versión : Version 4 Tamaño de archivo : 1,19 GiB Duración : 24 min 37 s Modo de tasa de bits : Variable Tasa de bits general : 6 892 kb/s Velocidad de fotogramas : 23,976 FPS Película : [Club-HD] BLEACH Thousand-Year Blood War S02 [1080p] Fecha de codificación : 2024-05-06 01:31:42 UTC Aplicación de codifición : mkvmerge v63.0.0 ('Everything') 32-bit Librería de codificación : libebml v1.4.2 + libmatroska v1.6.4 Pagina Web : www.club-hd.com Uploader : Sider Vídeo ID : 1 Formato : AVC Formato/Info : Advanced Video Codec Formato del perfil : High@L4 Ajustes del formato : CABAC / 4 Ref Frames Ajustes del formato, CABAC : Sí Ajustes del formato, RefFrames : 4 fotogramas ID códec : V_MPEG4/ISO/AVC Duración : 24 min 37 s Tipo de tasa de bits : Variable Tasa de bits máxima : 12,7 Mb/s Ancho : 1 920 píxeles Alto : 1 080 píxeles Relación de aspecto : 16:9 Modo velocidad fotogramas : Constante Velocidad de fotogramas : 23,976 (24000/1001) FPS Espacio de color : YUV Submuestreo croma : 4:2:0 Profundidad bits : 8 bits Tipo barrido : Progresivo Código tiempo primer fotograma : 00:00:00;00 Título : [Club-HD] BLEACH Thousand-Year Blood War S02 [1080p] Default : Sí Forced : No Rango de color : Limited Colores primarios : BT.709 Características transferencia : BT.709 Coeficientes matriz : BT.709 Audio #1 ID : 2 Formato : AAC LC Formato/Info : Advanced Audio Codec Low Complexity ID códec : A_AAC-2 Duración : 24 min 37 s Canal(es) : 2 canales Channel layout : L R Velocidad de muestreo : 48,0 kHz Velocidad de fotogramas : 46,875 FPS (1024 SPF) Modo de compresión : Con pérdida Título : Español latino [Sider] Idioma : Español Default : Sí Forced : No Audio #2 ID : 3 Formato : AAC LC Formato/Info : Advanced Audio Codec Low Complexity ID códec : A_AAC-2 Duración : 24 min 37 s Canal(es) : 2 canales Channel layout : L R Velocidad de muestreo : 48,0 kHz Velocidad de fotogramas : 46,875 FPS (1024 SPF) Modo de compresión : Con pérdida Título : Japonés [Sider] Idioma : Japonés Default : No Forced : No Texto #1 ID : 4 Formato : UTF-8 ID códec : S_TEXT/UTF8 ID códec/Info : UTF-8 Plain Text Título : Español latino [F] [Sider] Idioma : Español Default : Sí Forced : No Texto #2 ID : 5 Formato : UTF-8 ID códec : S_TEXT/UTF8 ID códec/Info : UTF-8 Plain Text Título : Español latino [SDH] [Sider] Idioma : Español Default : No Forced : No Menú 00:00:56.598 : en:Intro 00:02:23.644 : en:Scene 1 00:24:08.907 : en:Credits CAPTURAS ENLACES VIP 1 LINK VIP Hidden content ENLACES FREE Click aquí para descargar desde Fireload Click aquí para descargar desde 1Cloudfile Click aquí para descargar desde Qiwi CONTRASEÑA www.club-hd.com
Ficha Tecnica Título Original: Wonderhatch -Sora-Tobu Ryû no Shima- Año: 2023 Duración: 45 min. País: Japón Género: Serie de TV. Fantástico. Aventuras. Animación. Acción Sinopsis Upananta es un mundo de fantasía en el que existen islas flotantes y dracojinetes. Pero este mundo está al borde de la destrucción. Las islas se caen del cielo y el malvado Jairo es imparable. Solo el gran héroe Aktha puede salvar el mundo. Thaim, un dracojinete novato, jura que lo encontrará después de que el héroe desapareciera del campo de batalla. La búsqueda de Thaim lo lleva a otro mundo: un lugar en el que los dragones y las aventuras solo existen en los sueños de Nagi, una estudiante de bachillerato MEDIAINFO Formato : Matroska Formato de la versión : Version 4 Tamaño de archivo : 2,06 GiB Duración : 45 min 22 s Modo de tasa de bits : Variable Tasa de bits general : 6 510 kb/s Velocidad de fotogramas : 24,000 FPS Película : [Club-HD] Dragons of Wonderhatch S01 [1080p] Fecha de codificación : 2024-05-05 19:40:17 UTC Aplicación de codifición : mkvmerge v63.0.0 ('Everything') 32-bit Librería de codificación : libebml v1.4.2 + libmatroska v1.6.4 Pagina Web : www.club-hd.com Uploader : Sider Vídeo ID : 1 Formato : AVC Formato/Info : Advanced Video Codec Formato del perfil : High@L4 Ajustes del formato : CABAC / 4 Ref Frames Ajustes del formato, CABAC : Sí Ajustes del formato, RefFrames : 4 fotogramas ID códec : V_MPEG4/ISO/AVC Duración : 45 min 22 s Tipo de tasa de bits : Variable Tasa de bits : 5 868 kb/s Tasa de bits máxima : 12,7 Mb/s Ancho : 1 920 píxeles Alto : 1 080 píxeles Relación de aspecto : 16:9 Modo velocidad fotogramas : Constante Velocidad de fotogramas : 24,000 FPS Espacio de color : YUV Submuestreo croma : 4:2:0 Profundidad bits : 8 bits Tipo barrido : Progresivo Bits/(píxel*fotograma) : 0.118 Código tiempo primer fotograma : 00:00:00;00 Tamaño de pista : 1,86 GiB (90%) Título : [Club-HD] Dragons of Wonderhatch S01 [1080p] Default : Sí Forced : No Rango de color : Limited Colores primarios : BT.709 Características transferencia : BT.709 Coeficientes matriz : BT.709 Audio #1 ID : 2 Formato : E-AC-3 Formato/Info : Enhanced AC-3 Nombre comercial : Dolby Digital Plus ID códec : A_EAC3 Duración : 45 min 22 s Tipo de tasa de bits : Constante Tasa de bits : 256 kb/s Canal(es) : 6 canales Channel layout : L R C LFE Ls Rs Velocidad de muestreo : 48,0 kHz Velocidad de fotogramas : 31,250 FPS (1536 SPF) Modo de compresión : Con pérdida Tamaño de pista : 83,1 MiB (4%) Título : Español latino [Sider] Idioma : Español Service kind : Complete Main Default : Sí Forced : No Audio #2 ID : 3 Formato : E-AC-3 Formato/Info : Enhanced AC-3 Nombre comercial : Dolby Digital Plus ID códec : A_EAC3 Duración : 45 min 22 s Tipo de tasa de bits : Constante Tasa de bits : 256 kb/s Canal(es) : 6 canales Channel layout : L R C LFE Ls Rs Velocidad de muestreo : 48,0 kHz Velocidad de fotogramas : 31,250 FPS (1536 SPF) Modo de compresión : Con pérdida Tamaño de pista : 83,1 MiB (4%) Título : Japonés [Sider] Idioma : Japonés Service kind : Complete Main Default : No Forced : No Texto #1 ID : 4 Formato : UTF-8 ID códec : S_TEXT/UTF8 ID códec/Info : UTF-8 Plain Text Título : Español latino [F] [Sider] Idioma : Español Default : Sí Forced : No Texto #2 ID : 5 Formato : UTF-8 ID códec : S_TEXT/UTF8 ID códec/Info : UTF-8 Plain Text Título : Español latino [C] [Sider] Idioma : Español Default : No Forced : No Menú 00:13:41.958 : en:Intro 00:13:56.917 : en:Scene 1 00:44:28.708 : en:Credits CAPTURAS ENLACES VIP 1 LINK VIP Hidden content ENLACES FREE Click aquí para descargar desde Fireload Click aquí para descargar desde 1Cloudfile Click aquí para descargar desde Qiwi CONTRASEÑA www.club-hd.com
Ficha Tecnica Título Original: Sand Land Año: 2024 Duración: Duración no disponible País: Japón Director: Director no disponible Guion: Manga: Akira Toriyama Reparto: Reparto no disponible Género: Animación, Fantástico, Aventuras, Acción Sinopsis Sumérgete en un mundo desértico donde tanto humanos como demonios sufren una escasez extrema de agua. Juega y observa cómo el Príncipe Demonio, Belcebú, el Sheriff Rao y el demonio Ladrón se embarcan en una aventura en busca de un Manantial Legendario escondido en el desierto. Presentándose a sí mismo como un "demonio supermalvado", Belcebú tiene un corazón puro como el de un niño pequeño, pero posee una fuerza sobrehumana y habilidades telepáticas. Rao, un sheriff de un pequeño pueblo, busca la ayuda de los demonios para salvar a todo Sand Land de la escasez de agua. Ladrón, un viejo y sabio demonio con habilidades de ladrón también acompaña a Belcebú y Rao en su aventura. MEDIAINFO Formato : Matroska Formato de la versión : Version 4 Tamaño de archivo : 1,08 GiB Duración : 24 min 2 s Modo de tasa de bits : Variable Tasa de bits general : 6 418 kb/s Velocidad de fotogramas : 24,000 FPS Película : [Club-HD] SAND LAND THE SERIES S01 [1080p] Fecha de codificación : 2024-04-20 16:24:13 UTC Aplicación de codifición : mkvmerge v63.0.0 ('Everything') 32-bit Librería de codificación : libebml v1.4.2 + libmatroska v1.6.4 Pagina Web : www.club-hd.com Uploader : Sider Vídeo ID : 1 Formato : AVC Formato/Info : Advanced Video Codec Formato del perfil : High@L4 Ajustes del formato : CABAC / 4 Ref Frames Ajustes del formato, CABAC : Sí Ajustes del formato, RefFrames : 4 fotogramas ID códec : V_MPEG4/ISO/AVC Duración : 24 min 2 s Tipo de tasa de bits : Variable Tasa de bits : 6 034 kb/s Tasa de bits máxima : 12,7 Mb/s Ancho : 1 920 píxeles Alto : 1 080 píxeles Relación de aspecto : 16:9 Modo velocidad fotogramas : Constante Velocidad de fotogramas : 24,000 FPS Espacio de color : YUV Submuestreo croma : 4:2:0 Profundidad bits : 8 bits Tipo barrido : Progresivo Bits/(píxel*fotograma) : 0.121 Código tiempo primer fotograma : 00:00:00;00 Tamaño de pista : 1,01 GiB (94%) Título : [Club-HD] SAND LAND THE SERIES S01 [1080p] Default : Sí Forced : No Rango de color : Limited Colores primarios : BT.709 Características transferencia : BT.709 Coeficientes matriz : BT.709 Audio ID : 2 Formato : E-AC-3 Formato/Info : Enhanced AC-3 Nombre comercial : Dolby Digital Plus ID códec : A_EAC3 Duración : 24 min 2 s Tipo de tasa de bits : Constante Tasa de bits : 256 kb/s Canal(es) : 6 canales Channel layout : L R C LFE Ls Rs Velocidad de muestreo : 48,0 kHz Velocidad de fotogramas : 31,250 FPS (1536 SPF) Modo de compresión : Con pérdida Tamaño de pista : 44,0 MiB (4%) Título : Japonés [Sider] Idioma : Español Service kind : Complete Main Default : Sí Forced : No Texto ID : 3 Formato : UTF-8 ID códec : S_TEXT/UTF8 ID códec/Info : UTF-8 Plain Text Título : Español latino [C] [Sider] Idioma : Español Default : Sí Forced : No Menú 00:05:33.167 : en:Intro 00:05:45.708 : en:Scene 1 00:23:32.958 : en:Credits CAPTURAS ENLACES VIP 1 LINK VIP Hidden content ENLACES FREE Click aquí para descargar desde Fireload Click aquí para descargar desde 1Cloudfile Click aquí para descargar desde Qiwi CONTRASEÑA www.club-hd.com
Inspirada en la historia real de una peluquera que, sin ayuda de nadie, intentó reunir a toda una comunidad para ayudar a un padre viudo a intentar salvar la vida de su pequeña hija gravemente enferma. 7.4 ⭐ 1 LINK MKV VIP ⭐ Hidden content LINKS FREE PÚBLICOS ¡Click aquí para descargar desde Fireload! ¡Click aquí para descargar desde 1cloudfile! "Solo Audio Latino"
Ficha Tecnica Título Original: The Walking Dead: Daryl Dixon (Serie de TV) Año: 2023 Duración: 60 min. País: Estados Unidos Director: David Zabel, Daniel Percival, Greg Nicotero, Tim Southam Guion: David Zabel, Laura Snow, Jason Richman, Coline Abert, Shannon Goss. Saga creada por: Robert Kirkman, Tony Moore Reparto: Norman Reedus, Clémence Poésy, Adam Nagaitis, Anne Charrier, Romain Levi, Gilbert Glenn Brown, Avant Strangel, Laïka Blanc-Francard, Louis Puech Scigliuzzi, William Sciortino, Eriq Ebouaney, Melissa Suzanne McBride, François Delaive Género: Serie de TV, Acción, Terror, Ciencia ficción, Drama Sinopsis El viaje de Daryl a través de una Francia destruida pero resistente, con la esperanza de encontrar el camino de vuelta a casa. MEDIAINFO Formato : Matroska Formato de la versión : Version 4 Tamaño de archivo : 4,39 GiB Duración : 59 min 42 s Tasa de bits general : 10,5 Mb/s Velocidad de fotogramas : 23,976 FPS Película : [Club-HD] The Walking Dead - Daryl Dixon S01 [1080p] Fecha de codificación : 2024-05-04 01:09:02 UTC Aplicación de codifición : mkvmerge v63.0.0 ('Everything') 32-bit Librería de codificación : libebml v1.4.2 + libmatroska v1.6.4 Pagina Web : www.club-hd.com Uploader : Sider Vídeo ID : 1 Formato : AVC Formato/Info : Advanced Video Codec Formato del perfil : High@L4 Ajustes del formato : CABAC / 4 Ref Frames Ajustes del formato, CABAC : Sí Ajustes del formato, RefFrames : 4 fotogramas ID códec : V_MPEG4/ISO/AVC Duración : 59 min 42 s Tipo de tasa de bits : Constante Tasa de bits : 9 041 kb/s Tasa de bits nominal : 10 000 kb/s Ancho : 1 920 píxeles Alto : 960 píxeles Relación de aspecto : 2,000 Modo velocidad fotogramas : Constante Velocidad de fotogramas : 23,976 (24000/1001) FPS Espacio de color : YUV Submuestreo croma : 4:2:0 Profundidad bits : 8 bits Tipo barrido : Progresivo Bits/(píxel*fotograma) : 0.205 Tamaño de pista : 3,77 GiB (86%) Título : [Club-HD] The Walking Dead - Daryl Dixon S01 [1080p] Idioma : Inglés Default : Sí Forced : No Rango de color : Limited Colores primarios : BT.709 Características transferencia : BT.709 Coeficientes matriz : BT.709 Audio #1 ID : 2 Formato : E-AC-3 Formato/Info : Enhanced AC-3 Nombre comercial : Dolby Digital Plus ID códec : A_EAC3 Duración : 59 min 42 s Tipo de tasa de bits : Constante Tasa de bits : 640 kb/s Canal(es) : 6 canales Channel layout : L R C LFE Ls Rs Velocidad de muestreo : 48,0 kHz Velocidad de fotogramas : 31,250 FPS (1536 SPF) Modo de compresión : Con pérdida Tamaño de pista : 273 MiB (6%) Título : Español latino [Sider] Idioma : Español Service kind : Complete Main Default : Sí Forced : No Audio #2 ID : 3 Formato : E-AC-3 Formato/Info : Enhanced AC-3 Nombre comercial : Dolby Digital Plus ID códec : A_EAC3 Duración : 59 min 42 s Tipo de tasa de bits : Constante Tasa de bits : 640 kb/s Canal(es) : 6 canales Channel layout : L R C LFE Ls Rs Velocidad de muestreo : 48,0 kHz Velocidad de fotogramas : 31,250 FPS (1536 SPF) Modo de compresión : Con pérdida Tamaño de pista : 273 MiB (6%) Título : Inglés [Sider] Idioma : Inglés Service kind : Complete Main Default : No Forced : No Texto #1 ID : 4 Formato : UTF-8 ID códec : S_TEXT/UTF8 ID códec/Info : UTF-8 Plain Text Título : Español latino [F] [Sider] Idioma : Español Default : Sí Forced : No Texto #2 ID : 5 Formato : UTF-8 ID códec : S_TEXT/UTF8 ID códec/Info : UTF-8 Plain Text Título : Español latino [C] [Sider] Idioma : Español Default : No Forced : No CAPTURAS ENLACES VIP 1 LINK VIP Hidden content ENLACES FREE Click aquí para descargar desde Fireload Click aquí para descargar desde 1Cloudfile Click aquí para descargar desde Qiwi CONTRASEÑA www.club-hd.com
Sinopsis Backlash France es el próximo evento número 19 de pago por evento (PPV) y transmisión en vivo de lucha libre profesional de Backlash producido por la compañía estadounidense WWE. Se llevará a cabo para luchadores de las divisiones de marca Raw y SmackDown de la promoción. El evento se llevará a cabo el sábado 4 de mayo de 2024 en el LDLC Arena en la comuna de Décines-Charpieu, Francia, en Lyon, y será el primer evento PPV y de transmisión en vivo de la WWE celebrado en Francia. El concepto del evento se basará en la reacción de WrestleMania XL. MEDIAINFO General Unique ID : 19095345802358028538634046094968321577 (0xE5DA13C670A6657F5721776BD777629) Format : Matroska Format version : Version 4 File size : 9.81 GiB Duration : 2 h 55 min Overall bit rate : 8 007 kb/s Frame rate : 30.000 FPS Encoded date : 2024-05-05 03:09:37 UTC Writing application : mkvmerge v49.0.0 ('Sick Of Losing Soulmates') 64-bit Writing library : libebml v1.4.0 + libmatroska v1.6.1 Uploader : Brady Web : www.club-hd.com Video ID : 1 Format : AVC Format/Info : Advanced Video Codec Format profile : [email protected] Format settings : CABAC / 4 Ref Frames Format settings, CABAC : Yes Format settings, Reference frames : 4 frames Codec ID : V_MPEG4/ISO/AVC Duration : 2 h 55 min Bit rate : 7 808 kb/s Width : 1 920 pixels Height : 1 080 pixels Display aspect ratio : 16:9 Frame rate mode : Constant Frame rate : 30.000 FPS Color space : YUV Chroma subsampling : 4:2:0 Bit depth : 8 bits Scan type : Progressive Bits/(Pixel*Frame) : 0.126 Stream size : 9.49 GiB (97%) Writing library : x264 core 164 r3153 5f84d40 Encoding settings : cabac=1 / ref=2 / deblock=1:0:0 / analyse=0x3:0x113 / me=hex / subme=6 / psy=1 / psy_rd=1.00:0.00 / mixed_ref=1 / me_range=16 / chroma_me=1 / trellis=1 / 8x8dct=1 / cqm=0 / deadzone=21,11 / fast_pskip=1 / chroma_qp_offset=-2 / threads=24 / lookahead_threads=4 / sliced_threads=0 / nr=0 / decimate=1 / interlaced=0 / bluray_compat=0 / constrained_intra=0 / bframes=2 / b_pyramid=2 / b_adapt=1 / b_bias=0 / direct=1 / weightb=1 / open_gop=0 / weightp=1 / keyint=60 / keyint_min=31 / scenecut=0 / intra_refresh=0 / rc_lookahead=30 / rc=2pass / mbtree=1 / bitrate=7808 / ratetol=1.0 / qcomp=0.60 / qpmin=0 / qpmax=69 / qpstep=4 / cplxblur=20.0 / qblur=0.5 / vbv_maxrate=7808 / vbv_bufsize=15616 / nal_hrd=none / filler=0 / ip_ratio=1.40 / aq=1:1.00 Language : English Default : Yes Forced : No Audio #1 ID : 2 Format : AAC LC Format/Info : Advanced Audio Codec Low Complexity Codec ID : A_AAC-2 Duration : 2 h 55 min Bit rate : 129 kb/s Channel(s) : 2 channels Channel layout : L R Sampling rate : 48.0 kHz Frame rate : 46.875 FPS (1024 SPF) Compression mode : Lossy Stream size : 161 MiB (2%) Title : Latino Language : Spanish Default : Yes Forced : No Audio #2 ID : 3 Format : AAC LC Format/Info : Advanced Audio Codec Low Complexity Codec ID : A_AAC-2 Duration : 2 h 55 min Bit rate : 128 kb/s Channel(s) : 2 channels Channel layout : L R Sampling rate : 48.0 kHz Frame rate : 46.875 FPS (1024 SPF) Compression mode : Lossy Stream size : 161 MiB (2%) Title : Ingles Language : English Default : No Forced : No CAPTURAS DESCARGA Todos los links son Intercambiables! Hidden content Click aquí para descargar desde 1Cloudfile CONTRASEÑA www.club-hd.com
Ficha Tecnica Título Original: Star Wars: Crónicas del Imperio (Miniserie de TV) Año: 2024 Duración: 15 min. País: Estados Unidos Director: Dave Filoni Guion: Saga creada por: George Lucas Reparto: Jason Isaacs, Meredith Salenger, Lars Mikkelsen, Rya Kihlstedt, Diana Lee Inosanto, Matthew Wood, Wing T. Chao Género: Serie de TV, Animación, Ciencia ficción, Aventuras Sinopsis Una joven vengativa y un antiguo Jedi se enfrentan al despiadado Imperio Galáctico en épocas diferentes, y sus decisiones divergentes determinan sus destinos en una galaxia que cambia rápidamente. MEDIAINFO Formato : Matroska Formato de la versión : Version 4 Tamaño de archivo : 732 MiB Duración : 14 min 53 s Modo de tasa de bits : Variable Tasa de bits general : 6 869 kb/s Velocidad de fotogramas : 24,000 FPS Película : [Club-HD] Star Wars - Tales of the Empire S01 [1080p] Fecha de codificación : 2024-05-05 04:51:51 UTC Aplicación de codifición : mkvmerge v63.0.0 ('Everything') 32-bit Librería de codificación : libebml v1.4.2 + libmatroska v1.6.4 Pagina Web : www.club-hd.com Uploader : Sider Vídeo ID : 1 Formato : AVC Formato/Info : Advanced Video Codec Formato del perfil : High@L4 Ajustes del formato : CABAC / 4 Ref Frames Ajustes del formato, CABAC : Sí Ajustes del formato, RefFrames : 4 fotogramas ID códec : V_MPEG4/ISO/AVC Duración : 14 min 53 s Tipo de tasa de bits : Variable Tasa de bits : 6 221 kb/s Tasa de bits máxima : 12,7 Mb/s Ancho : 1 920 píxeles Alto : 1 080 píxeles Relación de aspecto : 16:9 Modo velocidad fotogramas : Constante Velocidad de fotogramas : 24,000 FPS Espacio de color : YUV Submuestreo croma : 4:2:0 Profundidad bits : 8 bits Tipo barrido : Progresivo Bits/(píxel*fotograma) : 0.125 Código tiempo primer fotograma : 00:00:00;00 Tamaño de pista : 663 MiB (91%) Título : [Club-HD] Star Wars - Tales of the Empire S01 [1080p] Idioma : Inglés Default : Sí Forced : No Rango de color : Limited Colores primarios : BT.709 Características transferencia : BT.709 Coeficientes matriz : BT.709 Audio #1 ID : 2 Formato : E-AC-3 Formato/Info : Enhanced AC-3 Nombre comercial : Dolby Digital Plus ID códec : A_EAC3 Duración : 14 min 53 s Tipo de tasa de bits : Constante Tasa de bits : 256 kb/s Canal(es) : 6 canales Channel layout : L R C LFE Ls Rs Velocidad de muestreo : 48,0 kHz Velocidad de fotogramas : 31,250 FPS (1536 SPF) Modo de compresión : Con pérdida Tamaño de pista : 27,3 MiB (4%) Título : Español latino [Sider] Idioma : Español Service kind : Complete Main Default : Sí Forced : No Audio #2 ID : 3 Formato : E-AC-3 Formato/Info : Enhanced AC-3 Nombre comercial : Dolby Digital Plus ID códec : A_EAC3 Duración : 14 min 53 s Tipo de tasa de bits : Constante Tasa de bits : 256 kb/s Canal(es) : 6 canales Channel layout : L R C LFE Ls Rs Velocidad de muestreo : 48,0 kHz Velocidad de fotogramas : 31,250 FPS (1536 SPF) Modo de compresión : Con pérdida Tamaño de pista : 27,3 MiB (4%) Título : Inglés [Sider] Idioma : Inglés Service kind : Complete Main Default : No Forced : No Texto #1 ID : 4 Formato : UTF-8 ID códec : S_TEXT/UTF8 ID códec/Info : UTF-8 Plain Text Título : Español latino [F] [Sider] Idioma : Español Default : Sí Forced : No Texto #2 ID : 5 Formato : UTF-8 ID códec : S_TEXT/UTF8 ID códec/Info : UTF-8 Plain Text Título : Español latino [C] [Sider] Idioma : Español Default : No Forced : No Texto #3 ID : 6 Formato : UTF-8 ID códec : S_TEXT/UTF8 ID códec/Info : UTF-8 Plain Text Título : Español latino [SDH] [Sider] Idioma : Español Default : No Forced : No Menú 00:04:51.000 : en:Intro 00:05:00.000 : en:Scene 1 00:14:21.333 : en:Credits CAPTURAS ENLACES VIP 1 LINK VIP Hidden content ENLACES FREE Click aquí para descargar desde Fireload Click aquí para descargar desde 1Cloudfile Click aquí para descargar desde Qiwi CONTRASEÑA www.club-hd.com
Volver