• Este aviso va dirigido a todos los nuevos miembros recien llegados a Club-HD. Les recordamos que la direccion URL de este sitio web es , asi que deben acceder únicamente por esta URL. Sean todos bienvenidos al Club!

A Whisker Away (2020) 1080p NF WEB-DL Japonés [Subt. Esp] (Animación. Fantástico. Romance)

Dante Inferno

🔥Dante Inferno🔥
Miembro del Staff
Moderador
Uploader
Registrado
24 May 2016
Mensajes
585
Puntos de reacción
11,477
Puntos
93
Ubicación
Argentina
Sitio web
club-hd.com



Otros títulos: Amor de gata | Nakitai watashi wa neko wo kaburu


SINOPSIS

Miyo "Muge" Sasaki es una joven estudiante de secundaria que se ha enamorado de su compañero Kento Hinode. Aunque le persigue todos los días, él nunca parece percatarse de su presencia. Sin embargo, mientras esconde un secreto que no puede contar a nadie, Muge decide seguir persiguiéndole. Un día, de manera fortuita, descubre una máscara con la que se transforma en un gato llamado Tarō. Esto le permite acercarse a Kento, pero también corre el riesgo de no poder volver a transformarse en humano.

MÁS INFORMACIÓN




TRAILER



CAPTURAS






MEDIAINFO

Código:
General
Complete name                            : A Whisker Away (2020) 1080p NF WEB-DL Japonés [Subt. Esp].mkv
Format                                   : Matroska
Format version                           : Version 4
File size                                : 2.66 GiB
Duration                                 : 1 h 44 min
Overall bit rate mode                    : Variable
Overall bit rate                         : 3 641 kb/s
Movie name                               : A Whisker Away (2020) 1080p NF WEB-DL Japonés [Subt. Esp] [www.club-hd.com]
Encoded date                             : UTC 2020-06-29 13:35:58
Writing application                      : mkvmerge v27.0.0 ('Metropolis') 64-bit
Writing library                          : libebml v1.3.6 + libmatroska v1.4.9

Video
ID                                       : 1
Format                                   : AVC
Format/Info                              : Advanced Video Codec
Format profile                           : Main@L4
Format settings                          : CABAC / 3 Ref Frames
Format settings, CABAC                   : Yes
Format settings, Reference frames        : 3 frames
Codec ID                                 : V_MPEG4/ISO/AVC
Duration                                 : 1 h 44 min
Bit rate mode                            : Variable
Bit rate                                 : 3 010 kb/s
Maximum bit rate                         : 4 515 kb/s
Width                                    : 1 920 pixels
Height                                   : 1 080 pixels
Display aspect ratio                     : 16:9
Frame rate mode                          : Constant
Frame rate                               : 23.976 (24000/1001) FPS
Color space                              : YUV
Chroma subsampling                       : 4:2:0
Bit depth                                : 8 bits
Scan type                                : Progressive
Bits/(Pixel*Frame)                       : 0.061
Stream size                              : 2.19 GiB (82%)
Title                                    : A Whisker Away (2020) 1080p NF WEB-DL Japonés [Subt. Esp]
Writing library                          : x264 core 148 r2717 0d2410d
Language                                 : Japanese
Default                                  : Yes
Forced                                   : No

Audio
ID                                       : 2
Format                                   : E-AC-3
Format/Info                              : Enhanced AC-3
Commercial name                          : Dolby Digital Plus
Codec ID                                 : A_EAC3
Duration                                 : 1 h 44 min
Bit rate mode                            : Constant
Bit rate                                 : 640 kb/s
Channel(s)                               : 6 channels
Channel layout                           : L R C LFE Ls Rs
Sampling rate                            : 48.0 kHz
Frame rate                               : 31.250 FPS (1536 SPF)
Compression mode                         : Lossy
Stream size                              : 478 MiB (18%)
Title                                    : Japonés
Language                                 : Japanese
Service kind                             : Complete Main
Default                                  : Yes
Forced                                   : No

Text
ID                                       : 3
Format                                   : UTF-8
Codec ID                                 : S_TEXT/UTF8
Codec ID/Info                            : UTF-8 Plain Text
Duration                                 : 1 h 44 min
Bit rate                                 : 54 b/s
Count of elements                        : 1393
Stream size                              : 41.4 KiB (0%)
Title                                    : Subtítulos Español
Language                                 : Spanish
Default                                  : Yes
Forced                                   : No

CONTRASEÑA



DESCARGAR

Todos los links son Intercambiables




Enlaces de Mega y Google Drive solo disponibles para Miembros VIP

Compra tu Membresía VIP y apoya a Club-HD!

ATENCIÓN! Tenemos TODO el material de Club-HD disponible por Mega y Google Drive, enlaces 100% activos y online hasta la fecha

Llévate tus cuentas Mega PRO II gratis con tu membresía VIP!
Todos los posts vivos con links de Mega y Google Drive.
Todo el material de Club-HD desbloqueado y sin publicidad.

Click Aquí para más información.



Enlaces de Mega y Google Drive solo disponibles para Miembros VIP

Compra tu Membresía VIP y apoya a Club-HD!

ATENCIÓN! Tenemos TODO el material de Club-HD disponible por Mega y Google Drive, enlaces 100% activos y online hasta la fecha

Llévate tus cuentas Mega PRO II gratis con tu membresía VIP!
Todos los posts vivos con links de Mega y Google Drive.
Todo el material de Club-HD desbloqueado y sin publicidad.

Click Aquí para más información.



Para ver este contenido oculto, debes dar click en una de las siguientes reacciones: Like Like, Love Love, Haha Haha, Wow Wow, Sad Sad, Angry Angry



Para ver este contenido oculto, debes dar click en una de las siguientes reacciones: Like Like, Love Love, Haha Haha, Wow Wow, Sad Sad, Angry Angry



Para ver este contenido oculto, debes dar click en una de las siguientes reacciones: Like Like, Love Love, Haha Haha, Wow Wow, Sad Sad, Angry Angry



Para ver este contenido oculto, debes dar click en una de las siguientes reacciones: Like Like, Love Love, Haha Haha, Wow Wow, Sad Sad, Angry Angry
 

Usuarios Que Están Viendo Este Tema (Total: 1, Miembros: 0, Invitados: 1)

Arriba